Torrent Search | Torrent Meta Search | Widgets

sgs deauxma 480p 1000

267.81 Mb
found 9 months ago
▲ seeders: 20 ▼ leechers:1
your vote:
real:
fake:
THANK YOU
download torrent
  Direct Downloadsponsored

sgs deauxma 480p 1000 torrent

Information about the torrent sgs deauxma 480p 1000. Seeders, leechers and torrent status is updated everyday.

If you want to download the video torrent sgs deauxma 480p 1000 you will need a torrent client.

Torrent Metasearch.

tracker
seeders
leechers
↓ torrent client compatible list

↑ hide torrent client compatible list

reviews
140
torrent contents

sgs_deauxma_480p_1000.mp4 torrent

sgs_deauxma_480p_1000.mp4267.81 Mb torrent search

Sample info:
Duration: 00:31:24.62, start: 0.000000, bitrate: 1192 kb/s
Stream #0:0	: Video: h264 (High) (avc1 / 0x31637661), yuv420p, 854x480 [SAR 1:1 DAR 427:240], 1000 kb/s, 29.97 fps, 29.97 tbr, 11988 tbn, 59.94 tbc
handler_name	: VideoHandler
Stream #0:1	: Audio: aac (mp4a / 0x6134706D), 48000 Hz, stereo, s16, 127 kb/s
handler_name	: SoundHandler
Stream #0:2	: Data: none (rtp	/ 0x20707472)
creation_time	: 2014-02-22 02:53:16
handler_name	: GPAC ISO Hint Handler
Stream #0:3	: Data: none (rtp	/ 0x20707472)
creation_time	: 2014-02-22 02:53:18
handler_name	: GPAC ISO Hint Handler
screenshots
sgs deauxma 480p 1000 torrent screenshot 72980A6428F0D44535C5FE49B079B24C962B0316 sgs deauxma 480p 1000 torrent screenshot 72980a6428f0d44535c5fe49b079b24c962b0316 torrent sgs deauxma 480p 1000
sgs_deauxma_480p_1000.mp4 images are auto generated please report any inapropriate images
you may be interested in these torrents seeders leechers size found
ShesGonnaSquirt Deauxma The Squirting Specialist NEW 05 March 2014 1 0 267.81 Mb 9 months ago

Torrent Downloaded From ExtraTorrent.cc.nfo sgs_deauxma_480p_1


The Squirting Specialist Deauxma (2014) 1 2 267.81 Mb 9 months ago

sgs_deauxma_480p_1000.mp4


sgs deauxma 480p 1000 0 1 267.81 Mb 9 months ago

sgs_deauxma 480p 1000.mp4


ShesGonnaSquirt Deauxma 0 2 267.81 Mb 9 months ago

Torrent downloaded from PornLeech.com.nfo sgs_deauxma_480p_1000.mp4


 

related search cloud

 deauxma