Torrent Search | Torrent Meta Search | Widgets

Velvet Goldmine (1998)

       
702.93 Mb
found 6 years ago
▲ seeders: 2 ▼ leechers:0
your vote:
real:
fake:

Velvet Goldmine

1998 · 124 min · 7.0/10 (28k votes) in imdb
Drama, Music
The secret to becoming a star is knowing how to behave like one
Director: Todd Haynes
In 1984, British journalist Arthur Stuart investigates the career of 1970s glam superstar Brian Slade, who was heavily influenced in his early years by hard-living and rebellious American singer Curt Wild.
download torrent

Velvet Goldmine (1998) torrent

Information about the torrent Velvet Goldmine (1998). Seeders, leechers and torrent status is updated everyday.

If you want to download the video torrent Velvet Goldmine (1998) you will need a torrent client.

Torrent Metasearch.

Torrent verified by thepiratebay.se.

tracker
seeders
leechers
↓ torrent client compatible list

↑ hide torrent client compatible list

torrent contents

Velvet Goldmine (1998) torrent

Velvet Goldmine (1998)
Velvet Goldmine (1998) x264 BaDTaStE.mkv702.87 Mb torrent search
vgmine.jpg64.36 Kb torrent search
info.txt2.83 Kb torrent search
A Message From BaDTaStE.txt719 bytes torrent search

Sample info:
Duration: 01:58:12.13, start: 0.000000, bitrate: N/A
Stream #0.0: Video: h264, yuv420p, 560x304, PAR 1:1 DAR 35:19, 25 fps, 25 tbr, 1k tbn, 50 tbc
Stream #0.1(eng): Audio: aac, 48000 Hz, stereo, s16
screenshots
Images are auto generated please report any inapropriate images
 

related search cloud

 velvet  badtaste  goldmine  meage  vgmine  info