Torrent Search | Torrent Meta Search | Widgets

Zooskool Shawns Dogs Zoofilia Beast

240.68 Mb
found 4 years ago
▲ seeders: 34 ▼ leechers:4
your vote:
real:
fake:
Direct Download
THANK YOU
download torrent
  Direct Downloadsponsored

Zooskool Shawns Dogs Zoofilia Beast torrent

Information about the torrent Zooskool Shawns Dogs Zoofilia Beast. Seeders, leechers and torrent status is updated everyday.

If you want to download the video torrent Zooskool Shawns Dogs Zoofilia Beast you will need a torrent client.

Torrent Metasearch.

tracker
seeders
leechers
↓ torrent client compatible list

↑ hide torrent client compatible list

Help torrentproject.se to stay alive .
Add links of torrentproject.se in your favorite forum, blog, youtube, facebook, twitter etc.
reviews
anonymous 24 Aug 2014, 03:08:04
anonymous 21 Jul 2014, 02:07:14
u
140
torrent contents

Zooskool - Shawns Dogs(Zoofilia,Beast).wmv torrent

Zooskool - Shawns Dogs(Zoofilia,Beast).wmv240.68 Mb torrent search

Sample info:
Duration: 00:27:42.60, start: 0.000000, bitrate: 1214 kb/s
Stream #0.0(eng): Audio: wmav2, 44100 Hz, 2 channels, s16, 128 kb/s
Stream #0.1(eng): Video: wmv3 (Main), yuv420p, 640x480, 1228 kb/s, 25 tbr, 1k tbn, 1k tbc
screenshots
Zooskool Shawns Dogs Zoofilia torrent screenshot 74C00FB007C02064A1A135E9D926F776C572B026 Zooskool Shawns Dogs Zoofilia  torrent screenshot 74c00fb007c02064a1a135e9d926f776c572b026 torrent Zooskool Shawns Dogs Zoofilia
Zooskool - Shawns Dogs(Zoofilia,Beast).wmv images are auto generated please report any inapropriate images
 

related search cloud

 beast  zoofilia  dogs  shawns  zooskool