Torrent Search | Torrent Meta Search | Widgets

Cannibal Holocaust II Natura contro (1988) Eng Dubbed DVDRip XviD LKRG

       
700 Mb
found 6 years ago
▲ seeders: 0 ▼ leechers:2
your vote:
real:
fake:
download torrent

Cannibal Holocaust II Natura contro (1988) Eng Dubbed DVDRip XviD LKRG torrent

Information about the torrent Cannibal Holocaust II Natura contro (1988) Eng Dubbed DVDRip XviD LKRG. Seeders, leechers and torrent status is updated everyday.

If you want to download the dvdrip torrent Cannibal Holocaust II Natura contro (1988) Eng Dubbed DVDRip XviD LKRG you will need a torrent client.

Torrent Metasearch.

Torrent verified by torlock.com.

tracker
seeders
leechers
↓ torrent client compatible list

↑ hide torrent client compatible list

comments/reviews
140
torrent contents

Cannibal Holocaust II (Natura contro)(1988)(Eng-Dubbed) DVDRip Xvid LKRG torrent

Cannibal Holocaust II (Natura contro) 1988 (Eng-Dubbed) DVDRip Xvid LKRG
Cannibal Holocaust II (Natura contro) 1988 (Eng-Dubbed) DVDRip Xvid LKRG.avi700 Mb torrent search
Torrent Downloaded From Extra Torrent NFO.txt116 bytes torrent search

Sample info:
Duration: 01:25:51.32, start: 0.000000, bitrate: 1139 kb/s
Stream #0.0: Video: mpeg4, yuv420p, 608x336 [PAR 1:1 DAR 38:21], 25 tbr, 25 tbn, 25 tbc
Stream #0.1: Audio: mp3, 48000 Hz, 1 channels, s16, 86 kb/s
screenshots
Images are auto generated please report any inapropriate images
 

related search cloud

 xvid  lkrg  torrent  cannibal  dvdrip  holocaust  dubbed  natura  contro  extra