Torrent Search | Torrent Meta Search | Widgets

TamilRockers at Vikram Vedha (2017) Tamil HDRip x264 700MB mkv

704.68 Mb
found 7 days ago
▲ seeders: 678 ▼ leechers:95
your vote:
real:
fake:
download torrent

TamilRockers at Vikram Vedha (2017) Tamil HDRip x264 700MB mkv torrent

Information about the torrent TamilRockers at Vikram Vedha (2017) Tamil HDRip x264 700MB mkv. Seeders, leechers and torrent status is updated several times per day.

If you want to download the hdrip torrent TamilRockers at Vikram Vedha (2017) Tamil HDRip x264 700MB mkv you will need a torrent client.

Torrent Metasearch.

tracker
seeders
leechers
↓ torrent client compatible list

↑ hide torrent client compatible list

torrent contents

www.TamilRockers.at - Vikram Vedha (2017) Tamil HDRip x264 700MB.mkv torrent

www.TamilRockers.at - Vikram Vedha (2017) Tamil HDRip x264 700MB.mkv704.68 Mb torrent search

Sample info:
Duration: 02:25:49.06, start: 0.000000, bitrate: 675 kb/s
Stream #0:0(eng): Video: h264 (High), yuv420p, 640x264 [SAR 1:1 DAR 80:33], 24 fps, 24 tbr, 1k tbn, 48 tbc (default) (forced)
title	: www.TamilRockers.at
BPS	: 577891
BPS-eng	: 577891
DURATION	: 02:25:49.000000000
DURATION-eng	: 02:25:49.000000000
NUMBER_OF_FRAMES: 209976
NUMBER_OF_FRAMES-eng: 209976
NUMBER_OF_BYTES : 631996997
NUMBER_OF_BYTES-eng: 631996997
_STATISTICS_WRITING_APP: mkvmerge v7.8.0 ('River Man') 64bit built on Mar 27 2015 16:31:37
_STATISTICS_WRITING_APP-eng: mkvmerge v7.8.0 ('River Man') 64bit built on Mar 27 2015 16:31:37
_STATISTICS_WRITING_DATE_UTC: 2017-08-11 22:51:07
_STATISTICS_WRITING_DATE_UTC-eng: 2017-08-11 22:51:07
_STATISTICS_TAGS: BPS DURATION NUMBER_OF_FRAMES NUMBER_OF_BYTES
_STATISTICS_TAGS-eng: BPS DURATION NUMBER_OF_FRAMES NUMBER_OF_BYTES
Stream #0:1(eng): Audio: mp3, 48000 Hz, stereo, s16p, 96 kb/s (default) (forced)
title	: www.TamilRockers.at
BPS	: 96000
BPS-eng	: 96000
DURATION	: 02:25:49.056000000
DURATION-eng	: 02:25:49.056000000
NUMBER_OF_FRAMES: 364544
NUMBER_OF_FRAMES-eng: 364544
NUMBER_OF_BYTES : 104988672
NUMBER_OF_BYTES-eng: 104988672
_STATISTICS_WRITING_APP: mkvmerge v7.8.0 ('River Man') 64bit built on Mar 27 2015 16:31:37
_STATISTICS_WRITING_APP-eng: mkvmerge v7.8.0 ('River Man') 64bit built on Mar 27 2015 16:31:37
_STATISTICS_WRITING_DATE_UTC: 2017-08-11 22:51:07
_STATISTICS_WRITING_DATE_UTC-eng: 2017-08-11 22:51:07
_STATISTICS_TAGS: BPS DURATION NUMBER_OF_FRAMES NUMBER_OF_BYTES
_STATISTICS_TAGS-eng: BPS DURATION NUMBER_OF_FRAMES NUMBER_OF_BYTES
screenshots
Images are auto generated please report any inapropriate images
 

related search cloud

 hdrip  tamil  vedha  vikram  tamilrockers