Torrent Search | Torrent Meta Search | Widgets

Public Agent Lucie

605.39 Mb
found 2 years ago
▲ seeders: 1 ▼ leechers:1
your vote:
real:
fake:
Direct Download
THANK YOU
download torrent
  Direct Downloadsponsored

Public Agent Lucie torrent

Information about the torrent Public Agent Lucie. Seeders, leechers and torrent status is updated several times per day.

If you want to download the video torrent Public Agent Lucie you will need a torrent client.

Torrent Metasearch.

tracker
seeders
leechers
↓ torrent client compatible list

↑ hide torrent client compatible list

Help torrentproject.se to stay alive .
Add links of torrentproject.se in your favorite forum, blog, youtube, facebook, twitter etc.
reviews
140
torrent contents

Public Agent - Lucie.mp4 torrent

Public Agent - Lucie.mp4605.39 Mb torrent search

Sample info:
Duration: 00:28:18.08, start: 0.000000, bitrate: 2990 kb/s
Stream #0.0(eng): Video: h264 (High), yuv420p, 852x480 [PAR 1:1 DAR 71:40], 2730 kb/s, 24 fps, 24 tbr, 24 tbn, 48 tbc
creation_time	: 2013-01-23 13:48:58
Stream #0.1(eng): Audio: aac, 44100 Hz, stereo, s16, 127 kb/s
creation_time	: 2013-01-23 13:48:58
Stream #0.2	: Data: rtp	/ 0x20707472, 117 kb/s
creation_time	: 2013-01-24 02:44:04
Stream #0.3	: Data: rtp	/ 0x20707472, 8 kb/s
creation_time	: 2013-01-24 02:44:06
screenshots
Public Agent Lucie torrent screenshot 765A08C1F1E79C64D152BA26E803B1C0709A467C Public Agent Lucie torrent screenshot 765a08c1f1e79c64d152ba26e803b1c0709a467c torrent Public Agent Lucie
Public Agent - Lucie.mp4 images are auto generated please report any inapropriate images
 

related search cloud

 lucie  agent  public