Torrent Search | Torrent Meta Search | Widgets

Hegre Art Spasms Orgasm Massage

       
364.1 Mb
found 3 years ago
▲ seeders: 3 ▼ leechers:1
your vote:
real:
fake:
download torrent

Hegre Art Spasms Orgasm Massage torrent

Information about the torrent Hegre Art Spasms Orgasm Massage. Seeders, leechers and torrent status is updated everyday.

If you want to download the video torrent Hegre Art Spasms Orgasm Massage you will need a torrent client.

Torrent Metasearch.

Torrent verified by thepiratebay.se.

tracker
seeders
leechers
↓ torrent client compatible list

↑ hide torrent client compatible list

comments/reviews
140
torrent contents

Hegre-Art - Spasms Orgasm Massage.mp4 torrent

Hegre-Art - Spasms Orgasm Massage.mp4364.1 Mb torrent search

Sample info:
Duration: 00:25:07.45, start: 0.000000, bitrate: 2026 kb/s
Stream #0.0	: Video: h264 (High), yuv420p, 980x552, 1894 kb/s, 25 fps, 25 tbr, 90k tbn, 50 tbc
creation_time	: 2013-04-09 17:10:28
Stream #0.1(eng): Audio: ac3, 48000 Hz, stereo, s16, 128 kb/s
creation_time	: 2013-04-09 17:10:28
screenshots
Images are auto generated please report any inapropriate images
 

related search cloud

 maage  orgasm  spasms  hegre