Torrent Search | Torrent Meta Search | Widgets

Marc Dorcel La Cousine 1995

       
696.88 Mb
found 4 years ago
▲ seeders: 3 ▼ leechers:1
your vote:
real:
fake:
Direct Download
THANK YOU
download torrent
  Direct Downloadsponsored

Marc Dorcel La Cousine 1995 torrent

Information about the torrent Marc Dorcel La Cousine 1995. Seeders, leechers and torrent status is updated everyday.

If you want to download the adult torrent Marc Dorcel La Cousine 1995 you will need a torrent client.

Torrent Metasearch.

Torrent verified by torlock.com.

tracker
seeders
leechers
↓ torrent client compatible list

↑ hide torrent client compatible list

Help torrentproject.se to stay alive .
Add links of torrentproject.se in your favorite forum, blog, youtube, facebook, twitter etc.
reviews
140
torrent contents

Marc.Dorcel-La.Cousine.1995 torrent

Marc.Dorcel-La.Cousine.1995
Marc.Dorcel-La.Cousine.1995.avi696.34 Mb torrent search
Marc.Dorcel-La.Cousine.1995.cover.jpg51.06 Kb torrent search
Marc.Dorcel-La.Cousine.1995.screen.jpg501.57 Kb torrent search

Sample info:
Duration: 01:31:32.28, start: 0.000000, bitrate: 1063 kb/s
Stream #0.0: Video: mpeg4, yuv420p, 512x368 [PAR 1:1 DAR 32:23], 29.97 tb(r)
Stream #0.1: Audio: mp3, 44100 Hz, stereo, 128 kb/s
screenshots
Marc Dorcel La Cousine torrent screenshot 79153DB3D7C1F731A26F03FBD2ACB55951B7E343 Marc Dorcel La Cousine  torrent screenshot 79153db3d7c1f731a26f03fbd2acb55951b7e343 torrent Marc Dorcel La Cousine
Marc.Dorcel-La.Cousine.1995 images are auto generated please report any inapropriate images
you may be interested in these torrents seeders leechers size found
Marc Dorcel La Cousine mkv 18 1 1.41 Gb 1 year ago

Marc.Dorcel_La.Cousine.mkv


Marc Dorcel La Cousine All Grown Up XXX DVDRip 9 3 942.89 Mb 6 months ago

La Cousine.avi


Marc Dorcel La Cousine FRENCH XXX     6 2 942.89 Mb 1 year ago

Marc.Dorcel-La.Cousine.FRENCH.XXX.avi


Marc Dorcel La Cousine FRENCH XXX 3 1 942.93 Mb 11 months ago

Marc.Dorcel-La.Cousine.FRENCH.XXX.avi Screenshot.png Torrent downloaded from Porn


Marc Dorcel La Cousine (1995) Joe D'Amato DVDRip     3 3 696.34 Mb 3 months ago

La Cousine DvDRip.avi


Marc Dorcel La Cousine 1995 3 1 943.61 Mb 6 months ago

La Cousine.avi La Cousine.avi.jpg Cover.jpg Cover front.jpg


Marc Dorcel La Cousine (1995) DVDRip 2 0 943.06 Mb 5 months ago

La.Cousine.avi poster.jpg screens.jpg


Marc Dorcel La Cousine FRENCH 2 0 942.89 Mb 4 months ago

Marc Dorcel - La Cousine FRENCH1.avi


Marc Dorcel La Cousine XXX DVDRip 2 4 943.06 Mb 3 months ago

Marc.Dorcel.La.Cousine.FRENCH1.avi RARBG.com.txt poster.jpg screens.jpg


 

related search cloud

 marc  cousine  dorcel  screen  cover