Torrent Search | Torrent Meta Search | Widgets

Tokyo Hot n0881

983.37 Mb
found 1 year ago
▲ seeders: 0 ▼ leechers:1
your vote:
real:
fake:
THANK YOU
download torrent
  Direct Downloadsponsored

Tokyo Hot n0881 torrent

Information about the torrent Tokyo Hot n0881. Seeders, leechers and torrent status is updated everyday.

If you want to download the video torrent Tokyo Hot n0881 you will need a torrent client.

Torrent Metasearch.

No trackers with seeders or leechers have been found, this doesn't mean that the torrent Tokyo Hot n0881 is dead
reviews
140
torrent contents

Tokyo-Hot n0881-avi torrent

Tokyo-Hot n0881-avi
001.jpg150.64 Kb torrent search
002.jpg568.93 Kb torrent search
003.jpg1.33 Mb torrent search
99BT工厂最新地址.mht127.48 Kb torrent search
Sky.jpg16.34 Kb torrent search
n0881.avi981.09 Mb torrent search
今日更新.mht90.56 Kb torrent search
最新の步兵骑兵西洋兵.url2.85 Kb torrent search
爱唯侦察_最新地址.chm11.29 Kb torrent search

Sample info:
Duration: 01:43:07.69, start: 0.000000, bitrate: 1330 kb/s
Stream #0:0(eng): Video: h264 (High) (avc1 / 0x31637661), yuv420p, 720x404 [SAR 1:1 DAR 180:101], 1199 kb/s, 29.97 fps, 29.97 tbr, 30k tbn, 59.94 tbc
creation_time	: 2013-09-02 05:47:58
handler_name	: Video Media Handler
Stream #0:1(eng): Audio: aac (mp4a / 0x6134706D), 48000 Hz, stereo, s16, 127 kb/s
creation_time	: 2013-09-02 05:47:58
handler_name	: Sound Media Handler
screenshots
Tokyo Hot n0881 torrent screenshot 7924BB06F435A01026AE40CFC5764CCE2B836BA8 Tokyo Hot n0881 torrent screenshot 7924bb06f435a01026ae40cfc5764cce2b836ba8 torrent Tokyo Hot n0881
Images are auto generated please report any inapropriate images
you may be interested in these torrents seeders leechers size found
Tokyo Hot n0881 2 1 981.09 Mb 1 year ago

Tokyo-Hot n0881.avi


Tokyo Hot n0881 – Meat Slave Life DVDRip 1 4 981.09 Mb 1 year ago

Tokyo-Hot n0881.avi Torrent downloaded from piratebg.com.txt


Tokyo Hot n0881 SD     1 3 983.12 Mb 1 year ago

dioguitar23.net_n0881.avi 003.jpg 002.jpg 001.jpg



第一會所新片@SIS001@ Tokyo Hot n0881 問答無用姦 椎名ジュン 0 1 2.97 Gb 1 year ago

(Tokyo-Hot)(n0881)問答無用姦 椎名ジュン.jpg


Tokyo Hot n0881 0 1 981.09 Mb 1 year ago

Tokyo-Hot n0881.avi


Tokyo Hot Rei Furuse 0 3 981.09 Mb 9 months ago

Tokyo Hot n0881 椎名ジュン - 問答無用姦_Rei Furuse.avi


 

related search cloud

 tokyo