Torrent Search | Torrent Meta Search | Widgets

Mariana Ntouvli o Biasmos tis kamarieras

1.37 Gb
found 3 years ago
▲ seeders: 1 ▼ leechers:0
your vote:
real:
fake:
THANK YOU
download torrent
  Direct Downloadsponsored

Mariana Ntouvli o Biasmos tis kamarieras torrent

Information about the torrent Mariana Ntouvli o Biasmos tis kamarieras. Seeders, leechers and torrent status is updated several times per day.

If you want to download the video torrent Mariana Ntouvli o Biasmos tis kamarieras you will need a torrent client.

Torrent Metasearch.

No trackers with seeders or leechers have been found, this doesn't mean that the torrent Mariana Ntouvli o Biasmos tis kamarieras is dead
reviews
140
torrent contents

Mariana Ntouvli - o Biasmos tis kamarieras torrent

Mariana Ntouvli - o Biasmos tis kamarieras
ntoybli+o+biasmos+ths+kamarieras.avi1.37 Gb torrent search

Sample info:
Duration: 01:55:21.36, start: 0.000000, bitrate: 1698 kb/s
Stream #0.0: Video: mpeg4, yuv420p, 720x576 [PAR 1:1 DAR 5:4], 25 tbr, 25 tbn, 25 tbc
Stream #0.1: Audio: mp3, 44100 Hz, 2 channels, s16, 192 kb/s
screenshots
Mariana Ntouvli o Biasmos torrent screenshot 79B0DCC06C76895E332C4C43A632C2EE7CC318DE Mariana Ntouvli o Biasmos  torrent screenshot 79b0dcc06c76895e332c4c43a632c2ee7cc318de torrent Mariana Ntouvli o Biasmos
Images are auto generated please report any inapropriate images
you may be interested in these torrents seeders leechers size found
mariana ntouvli o viasmos tis camarieras     3 0 1023.41 Mb 3 years ago

mariana ntouvli.avi screen.png


enjoy masturbation 1 1 6.43 Gb 3 years ago

mariana ntouvli.avi H.Filh.Ths.Korhs.Moy.avi Athlitries Sex kai Dopa.avi gat


Ntouvli 2o DvD 0 1 1023.41 Mb 3 years ago

mariana ntouvli.avi screen.png


 

related search cloud

 kamarieras  biasmos  ntoybli  ntouvli  mariana