Torrent Search | Torrent Meta Search | Widgets

Facing The Giants (2006) BluRay 720p 700MB Ganool mkv

799.42 Mb
found 1 year ago
▲ seeders: 116 ▼ leechers:7
your vote:
real:
fake:
Direct Download
THANK YOU
download torrent
  Direct Downloadsponsored

Facing The Giants (2006) BluRay 720p 700MB Ganool mkv torrent

Information about the torrent Facing The Giants (2006) BluRay 720p 700MB Ganool mkv. Seeders, leechers and torrent status is updated several times per day.

If you want to download the hdrip torrent Facing The Giants (2006) BluRay 720p 700MB Ganool mkv you will need a torrent client.

Torrent Metasearch.

tracker
seeders
leechers
↓ torrent client compatible list

↑ hide torrent client compatible list

Help torrentproject.se to stay alive .
Add links of torrentproject.se in your favorite forum, blog, youtube, facebook, twitter etc.
reviews
140
torrent contents

[ www.UsaBit.com ] - Facing The Giants (2006) BluRay 720p 700MB Ganool.mkv torrent

[ www.UsaBit.com ] - Facing The Giants (2006) BluRay 720p 700MB Ganool.mkv799.42 Mb torrent search

Sample info:
Duration: 01:51:11.78, start: 0.000000, bitrate: N/A
Stream #0.0: Video: h264 (High), yuv420p, 1280x696 [PAR 1:1 DAR 160:87], 23.98 fps, 23.98 tbr, 1k tbn, 47.95 tbc (default)
Stream #0.1(eng): Audio: aac, 48000 Hz, stereo, s16 (default)
screenshots
Facing The Giants 2006 torrent screenshot 79B6556170F3FDA4AC8546F042F4054571118D69 Facing The Giants 2006  torrent screenshot 79b6556170f3fda4ac8546f042f4054571118d69 torrent Facing The Giants 2006
[ www.UsaBit.com ] - Facing The Giants (2006) BluRay 720p 700MB Ganool.mkv images are auto generated please report any inapropriate images
 

related search cloud

 ganool  bluray  giants  facing  usabit