Torrent Search | Torrent Meta Search | Widgets

Sons Of Anarchy S1 3 Complete

       
14.9 Gb
found 4 years ago
▲ seeders: 9 ▼ leechers:2
your vote:
real:
fake:
Direct Download
THANK YOU
download torrent
  Direct Downloadsponsored

Sons Of Anarchy S1 3 Complete torrent

Information about the torrent Sons Of Anarchy S1 3 Complete. Seeders, leechers and torrent status is updated several times per day.

If you want to download the tv torrent Sons Of Anarchy S1 3 Complete you will need a torrent client.

Torrent Metasearch.

Torrent verified by kat.ph.

tracker
seeders
leechers
↓ torrent client compatible list

↑ hide torrent client compatible list

Help torrentproject.se to stay alive .
Add links of torrentproject.se in your favorite forum, blog, youtube, facebook, twitter etc.
reviews
140
torrent contents

Sons Of Anarchy S1-3 Complete torrent

Sons Of Anarchy S1-3 Complete
 Sons Of Anarchy S1
Sons.of.Anarchy.S01E01.Pilot.NOMAD13666.avi549.99 Mb torrent search
Sons.of.Anarchy.S01E13.The.Revelator.NOMAD13666.avi549.77 Mb torrent search
Sons.of.Anarchy.S01E12.The.Sleep.Of.Babies.NOMAD13666.avi350.94 Mb torrent search
Sons.of.Anarchy.S01E07.Old.Bones.NOMAD13666.avi350.82 Mb torrent search
Sons.of.Anarchy.S01E06.AK-51.NOMAD13666.avi350.82 Mb torrent search
Sons.of.Anarchy.S01E04.Patch.Ove.NOMAD13666r.avi350.76 Mb torrent search
Sons.of.Anarchy.S01E09.Hell.Followed.NOMAD13666.avi349.99 Mb torrent search
Sons.of.Anarchy.S01E08.The.Pull.NOMAD13666.avi349.98 Mb torrent search
Sons.of.Anarchy.S01E10.Better.Half.NOMAD13666.avi349.95 Mb torrent search
Sons.of.Anarchy.S01E11.Capybara.NOMAD13666.avi349.95 Mb torrent search
Sons.of.Anarchy.S01E02.Seeds.NOMAD13666.avi349.87 Mb torrent search
Sons.of.Anarchy.S01E05.Giving.Back.NOMAD13666.avi349.52 Mb torrent search
Sons.of.Anarchy.S01E03.Fun.Town.NOMAD13666.avi349.5 Mb torrent search

Sons Of Anarchy S1-3 Complete
 Sons Of Anarchy S2
SONS.OF.ANARCHY.S02E10.Balm.HDTV.NOMAD13666.avi551.85 Mb torrent search
SONS.OF.ANARCHY.S02E13.Na.Triobloidi.HDTV.NOMAD13666.avi550.31 Mb torrent search
SONS.OF.ANARCHY.S02E01.Albification.HDTV.NOMAD13666.avi550 Mb torrent search
SONS.OF.ANARCHY.S02E08.Potlatch.HDTV.NOMAD13666.avi353.01 Mb torrent search
SONS.OF.ANARCHY.S02E03.Fix.HDTV.NOMAD13666.avi352.04 Mb torrent search
SONS.OF.ANARCHY.S02E09.Fa.Guan.HDTV.NOMAD13666.avi351.21 Mb torrent search
SONS.OF.ANARCHY.S02E04.Eureka.HDTV.NOMAD13666.avi351.18 Mb torrent search
SONS.OF.ANARCHY.S02E07.Gilead.HDTV.NOMAD13666.avi350.43 Mb torrent search
SONS.OF.ANARCHY.S02E12.The.Culling.HDTV.NOMAD13666.avi3 bytes torrent search

Sample info:
Duration: 00:55:14.44, start: 0.000000, bitrate: 1396 kb/s
Stream #0.0: Video: mpeg4, yuv420p, 624x352 [PAR 1:1 DAR 39:22], 23.98 tb(r)
Stream #0.1: Audio: mp3, 48000 Hz, stereo, 32 kb/s
 

related search cloud

 anarchy  sons  nomad  hdtv  complete  triobloidi  balm  town  back  guan