Torrent Search | Torrent Meta Search | Widgets

The Boss Baby (2017) 720p HD TS x264 AC3 CPG

       
2.25 Gb
found 4 months ago
▲ seeders: 876 ▼ leechers:99
your vote:
real:
fake:
download torrent

The Boss Baby (2017) 720p HD TS x264 AC3 CPG torrent

Information about the torrent The Boss Baby (2017) 720p HD TS x264 AC3 CPG. Seeders, leechers and torrent status is updated several times per day.

If you want to download the hdrip torrent The Boss Baby (2017) 720p HD TS x264 AC3 CPG you will need a torrent client.

Torrent Metasearch.

Torrent verified by thepiratebay.se.

tracker
seeders
leechers
↓ torrent client compatible list

↑ hide torrent client compatible list

torrent contents

The Boss Baby 2017 720p HD-TS x264 AC3-CPG torrent

The Boss Baby 2017 720p HD-TS x264 AC3-CPG
Sample.mkv26.15 Mb torrent search
The Boss Baby 2017 720p HD-TS x264 AC3-CPG.mkv2.23 Gb torrent search
Torrent Downloaded From ExtraTorrent.cc.txt338 bytes torrent search

Sample info:
Duration: 01:26:27.17, start: 0.000000, bitrate: 3686 kb/s
Stream #0:0: Video: h264 (High), yuvj420p(pc, bt709), 1376x576 [SAR 1:1 DAR 43:18], 24 fps, 24 tbr, 1k tbn, 48 tbc (default)
BPS	: 3492659
BPS-eng	: 3492659
DURATION	: 01:26:27.167000000
DURATION-eng	: 01:26:27.167000000
NUMBER_OF_FRAMES: 124492
NUMBER_OF_FRAMES-eng: 124492
NUMBER_OF_BYTES : 2264626218
NUMBER_OF_BYTES-eng: 2264626218
_STATISTICS_WRITING_APP: mkvmerge v9.9.0 ('Pick Up') 64bit
_STATISTICS_WRITING_APP-eng: mkvmerge v9.9.0 ('Pick Up') 64bit
_STATISTICS_WRITING_DATE_UTC: 2017-04-14 19:53:25
_STATISTICS_WRITING_DATE_UTC-eng: 2017-04-14 19:53:25
_STATISTICS_TAGS: BPS DURATION NUMBER_OF_FRAMES NUMBER_OF_BYTES
_STATISTICS_TAGS-eng: BPS DURATION NUMBER_OF_FRAMES NUMBER_OF_BYTES
Stream #0:1: Audio: ac3, 44100 Hz, stereo, fltp, 192 kb/s (default)
BPS	: 192000
BPS-eng	: 192000
DURATION	: 01:26:26.943000000
DURATION-eng	: 01:26:26.943000000
NUMBER_OF_FRAMES: 148922
NUMBER_OF_FRAMES-eng: 148922
NUMBER_OF_BYTES : 124486636
NUMBER_OF_BYTES-eng: 124486636
_STATISTICS_WRITING_APP: mkvmerge v9.9.0 ('Pick Up') 64bit
_STATISTICS_WRITING_APP-eng: mkvmerge v9.9.0 ('Pick Up') 64bit
_STATISTICS_WRITING_DATE_UTC: 2017-04-14 19:53:25
_STATISTICS_WRITING_DATE_UTC-eng: 2017-04-14 19:53:25
_STATISTICS_TAGS: BPS DURATION NUMBER_OF_FRAMES NUMBER_OF_BYTES
_STATISTICS_TAGS-eng: BPS DURATION NUMBER_OF_FRAMES NUMBER_OF_BYTES
screenshots
Images are auto generated please report any inapropriate images
 

related search cloud

 baby  extratorrent  downloaded  torrent  sample