Torrent Search | Torrent Meta Search | Widgets

Tiffany Star Push It In My Ass LetsTryAnal

690.36 Mb
found 4 years ago
▲ seeders: 0 ▼ leechers:1
your vote:
real:
fake:
download torrent

Tiffany Star Push It In My Ass LetsTryAnal torrent

Information about the torrent Tiffany Star Push It In My Ass LetsTryAnal. Seeders, leechers and torrent status is updated several times per day.

If you want to download the anal torrent Tiffany Star Push It In My Ass LetsTryAnal you will need a torrent client.

Torrent Metasearch.

No trackers with seeders or leechers have been found, this doesn't mean that the torrent Tiffany Star Push It In My Ass LetsTryAnal is dead
comments/reviews
140
torrent contents

Tiffany.Star.Push.It.In.My.Ass.LetsTryAnal.2012_iyutero.com.wmv torrent

Tiffany.Star.Push.It.In.My.Ass.LetsTryAnal.2012_iyutero.com.wmv690.36 Mb torrent search

Sample info:
Duration: 00:34:48.57, start: 0.000000, bitrate: 2772 kb/s
Stream #0.0: Video: wmv2, yuv420p, 854x480, 29.97 tbr, 1k tbn, 1k tbc
Stream #0.1: Audio: wmav2, 48000 Hz, 2 channels, s16, 128 kb/s
screenshots
Images are auto generated please report any inapropriate images
 

related search cloud

 iyutero  letstryanal  push  star  tiffany