Torrent Search | Torrent Meta Search | Widgets

HTMS 025

841.76 Mb
found 1 year ago
▲ seeders: 5 ▼ leechers:3
your vote:
real:
fake:
Direct Download
THANK YOU
download torrent
  Direct Downloadsponsored

HTMS 025 torrent

Information about the torrent HTMS 025. Seeders, leechers and torrent status is updated everyday.

If you want to download the video torrent HTMS 025 you will need a torrent client.

Torrent Metasearch.

tracker
seeders
leechers
↓ torrent client compatible list

↑ hide torrent client compatible list

Help torrentproject.se to stay alive .
Add links of torrentproject.se in your favorite forum, blog, youtube, facebook, twitter etc.
reviews
140
torrent contents

HTMS-025.mp4 torrent

HTMS-025.mp4841.76 Mb torrent search

Sample info:
Duration: 01:35:02.96, start: 0.000000, bitrate: 1238 kb/s
Stream #0:0(eng): Audio: aac (mp4a / 0x6134706D), 48000 Hz, stereo, s16, 45 kb/s
creation_time	: 2013-08-25 19:12:45
handler_name	: Mainconcept MP4 Sound Media Handler
Stream #0:1(eng): Video: h264 (Main) (avc1 / 0x31637661), yuv420p, 640x360 [SAR 1:1 DAR 16:9], 1187 kb/s, 29.97 fps, 29.97 tbr, 30k tbn, 59.94 tbc
creation_time	: 2013-08-25 19:12:45
handler_name	: Mainconcept MP4 Video Media Handler
screenshots
HTMS 025 torrent screenshot 7AC3E648039C6D9B1984E09D0C9F62A244FE0E54 HTMS 025 torrent screenshot 7ac3e648039c6d9b1984e09d0c9f62a244fe0e54 torrent HTMS 025
HTMS-025.mp4 images are auto generated please report any inapropriate images
 

related search cloud

 htms