Torrent Search | Torrent Meta Search | Widgets

Moj tata na odredjeno vreme (1982) domaci film

698.81 Mb
found 3 years ago
▲ seeders: 1 ▼ leechers:1
your vote:
real:
fake:
THANK YOU
download torrent

Moj tata na odredjeno vreme (1982) domaci film torrent

Information about the torrent Moj tata na odredjeno vreme (1982) domaci film. Seeders, leechers and torrent status is updated everyday.

If you want to download the video torrent Moj tata na odredjeno vreme (1982) domaci film you will need a torrent client.

Torrent Metasearch.

tracker
seeders
leechers
↓ torrent client compatible list

↑ hide torrent client compatible list

reviews
140
torrent contents

Moj tata na odredjeno vreme(1982) domaci film torrent

Moj tata na odredjeno vreme(1982) domaci film
 Moj tata na odredjeno vreme by Cila65
Moj tata na odredjeno vreme.avi698.81 Mb torrent search

Sample info:
Duration: 01:25:07.36, start: 0.000000, bitrate: 1147 kb/s
Stream #0.0: Video: h264, yuv420p, 512x368, 25.00 tb(r)
Stream #0.1: Audio: ac3, 48000 Hz, stereo, 320 kb/s
screenshots
Moj tata na odredjeno torrent screenshot 7B695EB97AF6968B39C29A8FC45D29C2099934C5 Moj tata na odredjeno  torrent screenshot 7b695eb97af6968b39c29a8fc45d29c2099934c5 torrent Moj tata na odredjeno
Images are auto generated please report any inapropriate images
you may be interested in these torrents seeders leechers size found
Moj tata moj alfons 0 1 255.3 Mb 8 months ago

Logo.png BIGBBS.html My.Daddy.Is.My.Pimp.Tori black.avi 0f


 

related search cloud

 tata  vreme  odredjeno  cila  domaci  film