Torrent Search | Torrent Meta Search | Widgets

Jagga Jasoos (2017) Hindi Real DvdScr x264 AAC mkv

1.01 Gb
found 13 days ago
▲ seeders: 1581 ▼ leechers:359
your vote:
real:
fake:
download torrent

Jagga Jasoos (2017) Hindi Real DvdScr x264 AAC mkv torrent

Information about the torrent Jagga Jasoos (2017) Hindi Real DvdScr x264 AAC mkv. Seeders, leechers and torrent status is updated everyday.

If you want to download the video torrent Jagga Jasoos (2017) Hindi Real DvdScr x264 AAC mkv you will need a torrent client.

Torrent Metasearch.

tracker
seeders
leechers
↓ torrent client compatible list

↑ hide torrent client compatible list

torrent contents

Jagga Jasoos (2017) Hindi Real DvdScr x264 AAC.mkv torrent

Jagga Jasoos (2017) Hindi Real DvdScr x264 AAC.mkv1.01 Gb torrent search

Sample info:
Duration: 02:34:52.47, start: 0.062000, bitrate: 929 kb/s
Stream #0:0: Video: h264 (Main), yuv420p(tv, bt709/smpte170m/bt709), 720x304, SAR 1:1 DAR 45:19, 23.98 fps, 23.98 tbr, 1k tbn, 180k tbc (default)
title	: link2download.com
BPS	: 798870
BPS-eng	: 798870
DURATION	: 02:34:52.450000000
DURATION-eng	: 02:34:52.450000000
NUMBER_OF_FRAMES: 222796
NUMBER_OF_FRAMES-eng: 222796
NUMBER_OF_BYTES : 927933360
NUMBER_OF_BYTES-eng: 927933360
_STATISTICS_WRITING_APP: mkvmerge v7.0.0 ('Where We Going') 64bit built on Jun	9 2014 15:16:27
_STATISTICS_WRITING_APP-eng: mkvmerge v7.0.0 ('Where We Going') 64bit built on Jun	9 2014 15:16:27
_STATISTICS_WRITING_DATE_UTC: 2017-07-15 07:24:35
_STATISTICS_WRITING_DATE_UTC-eng: 2017-07-15 07:24:35
_STATISTICS_TAGS: BPS DURATION NUMBER_OF_FRAMES NUMBER_OF_BYTES
_STATISTICS_TAGS-eng: BPS DURATION NUMBER_OF_FRAMES NUMBER_OF_BYTES
Stream #0:1(hin): Audio: aac (LC), 48000 Hz, stereo, fltp (default)
title	: link2download.com
BPS	: 128044
BPS-eng	: 128044
DURATION	: 02:34:52.351000000
DURATION-eng	: 02:34:52.351000000
NUMBER_OF_FRAMES: 435579
NUMBER_OF_FRAMES-eng: 435579
NUMBER_OF_BYTES : 148729327
NUMBER_OF_BYTES-eng: 148729327
_STATISTICS_WRITING_APP: mkvmerge v7.0.0 ('Where We Going') 64bit built on Jun	9 2014 15:16:27
_STATISTICS_WRITING_APP-eng: mkvmerge v7.0.0 ('Where We Going') 64bit built on Jun	9 2014 15:16:27
_STATISTICS_WRITING_DATE_UTC: 2017-07-15 07:24:35
_STATISTICS_WRITING_DATE_UTC-eng: 2017-07-15 07:24:35
_STATISTICS_TAGS: BPS DURATION NUMBER_OF_FRAMES NUMBER_OF_BYTES
_STATISTICS_TAGS-eng: BPS DURATION NUMBER_OF_FRAMES NUMBER_OF_BYTES
screenshots
Images are auto generated please report any inapropriate images
 

related search cloud

 dvdscr  real  hindi  jasoos  jagga