Torrent Search | Torrent Meta Search | Widgets

HotKinkyJo Back In Black 1080p

518.2 Mb
found 2 years ago
▲ seeders: 2 ▼ leechers:4
your vote:
real:
fake:
Direct Download
THANK YOU
download torrent
  Direct Downloadsponsored

HotKinkyJo Back In Black 1080p torrent

Information about the torrent HotKinkyJo Back In Black 1080p. Seeders, leechers and torrent status is updated everyday.

If you want to download the hdrip torrent HotKinkyJo Back In Black 1080p you will need a torrent client.

Torrent Metasearch.

tracker
seeders
leechers
↓ torrent client compatible list

↑ hide torrent client compatible list

Help torrentproject.se to stay alive .
Add links of torrentproject.se in your favorite forum, blog, youtube, facebook, twitter etc.
reviews
140
torrent contents

HotKinkyJo - Back In Black [1080p].mp4 torrent

HotKinkyJo - Back In Black [1080p].mp4518.2 Mb torrent search

Sample info:
Duration: 00:08:54.59, start: 0.000000, bitrate: 8131 kb/s
Stream #0.0(eng): Video: h264 (Main), yuv420p, 1920x1080 [PAR 1:1 DAR 16:9], 8006 kb/s, 50 fps, 50 tbr, 50k tbn, 100 tbc
creation_time	: 2013-02-03 17:39:00
Stream #0.1(eng): Audio: aac, 44100 Hz, stereo, s16, 123 kb/s
creation_time	: 2013-02-03 17:39:04
screenshots
HotKinkyJo Back In Black torrent screenshot 7BC1E40AA99655F15A98CEEBFBE6736228D4D943 HotKinkyJo Back In Black  torrent screenshot 7bc1e40aa99655f15a98ceebfbe6736228d4d943 torrent HotKinkyJo Back In Black
HotKinkyJo - Back In Black [1080p].mp4 images are auto generated please report any inapropriate images
 

related search cloud

 black  back  hotkinkyjo