Torrent Search | Torrent Meta Search | Widgets

Yokujou Bazooka The Animation 01 Raw

202.34 Mb
found 11 months ago
▲ seeders: 0 ▼ leechers:1
your vote:
real:
fake:
Direct Download
THANK YOU
download torrent
  Direct Downloadsponsored

Yokujou Bazooka The Animation 01 Raw torrent

Information about the torrent Yokujou Bazooka The Animation 01 Raw. Seeders, leechers and torrent status is updated everyday.

If you want to download the video torrent Yokujou Bazooka The Animation 01 Raw you will need a torrent client.

Torrent Metasearch.

tracker
seeders
leechers
↓ torrent client compatible list

↑ hide torrent client compatible list

Help torrentproject.se to stay alive .
Add links of torrentproject.se in your favorite forum, blog, youtube, facebook, twitter etc.
reviews
140
torrent contents

Yokujou Bazooka The Animation - 01 [Raw].mp4 torrent

Yokujou Bazooka The Animation - 01 [Raw].mp4202.34 Mb torrent search

Sample info:
Duration: 00:26:44.67, start: 0.000000, bitrate: 1057 kb/s
Stream #0:0	: Video: h264 (High) (avc1 / 0x31637661), yuv420p, 720x480 [SAR 32:27 DAR 16:9], 863 kb/s, SAR 853:720 DAR 853:480, 25.36 fps, 119.88 tbr, 120k tbn, 59.94 tbc
creation_time	: 2013-10-26 03:57:59
handler_name	: GPAC ISO Video Handler
Stream #0:1	: Audio: aac (mp4a / 0x6134706D), 48000 Hz, stereo, s16, 189 kb/s
creation_time	: 2013-10-26 03:58:01
handler_name	: GPAC ISO Audio Handler
screenshots
Yokujou Bazooka The Animation torrent screenshot 7D228A4B9A94285066A4045D770F8A5F203BDDF6 Yokujou Bazooka The Animation  torrent screenshot 7d228a4b9a94285066a4045d770f8a5f203bddf6 torrent Yokujou Bazooka The Animation
Yokujou Bazooka The Animation - 01 [Raw].mp4 images are auto generated please report any inapropriate images
 

related search cloud

 animation  bazooka  yokujou