Torrent Search | Torrent Meta Search | Widgets

Giovani Carini e Disoccupati

       
699.94 Mb
found 6 years ago
▲ seeders: 2 ▼ leechers:0
your vote:
real:
fake:
download torrent

Giovani Carini e Disoccupati torrent

Information about the torrent Giovani Carini e Disoccupati. Seeders, leechers and torrent status is updated everyday.

If you want to download the video torrent Giovani Carini e Disoccupati you will need a torrent client.

Torrent Metasearch.

.

tracker
seeders
leechers
↓ torrent client compatible list

↑ hide torrent client compatible list

comments/reviews
140
torrent contents

Giovani, Carini e Disoccupati.avi torrent

Giovani, Carini e Disoccupati.avi699.94 Mb torrent search

Sample info:
Duration: 01:34:16.04, start: 0.000000, bitrate: 1038 kb/s
Stream #0.0: Video: mpeg4 (Advanced Simple Profile), yuv420p, 608x336 [PAR 1:1 DAR 38:21], 25 tbr, 25 tbn, 25 tbc
Stream #0.1: Audio: mp3, 48000 Hz, stereo, s16, 127 kb/s
screenshots
Images are auto generated please report any inapropriate images
 

related search cloud

 disoccupati  carini  giovani