Torrent Search | Torrent Meta Search | Widgets

DivX ITA Bambola

699.8 Mb
found 4 years ago
▲ seeders: 1 ▼ leechers:1
your vote:
real:
fake:
THANK YOU
download torrent
  Direct Downloadsponsored

DivX ITA Bambola torrent

Information about the torrent DivX ITA Bambola. Seeders, leechers and torrent status is updated everyday.

If you want to download the video torrent DivX ITA Bambola you will need a torrent client.

Torrent Metasearch.

tracker
seeders
leechers
↓ torrent client compatible list

↑ hide torrent client compatible list

reviews
140
torrent contents

[DivX-ITA] Bambola.avi torrent

[DivX-ITA] Bambola.avi699.8 Mb torrent search

Sample info:
Duration: 01:31:36.76, start: 0.000000, bitrate: 1067 kb/s
Stream #0.0: Video: mpeg4, yuv420p, 512x288 [PAR 1:1 DAR 16:9], 25.00 tb(r)
Stream #0.1: Audio: mp3, 44100 Hz, stereo, 128 kb/s
you may be interested in these torrents seeders leechers size found
PK (2014) Hindi 1CD Pre DVDRip XviD AAC By TG     807 4 1014.54 Mb 1 month ago

Cover.jpg PK [2014] Hindi (1CD) Pre-DvDRip x264 AAC By TG.mkv_thumbs_[2014.12.24_1


Nikola Tesla Afera genija (2011) DivX SATRip ExKinoRay 737 11 614.55 Mb 6 months ago

Nikola.Tesla.Afera.genija.2011.DivX.SATRip.ExKinoRay.avi


Taken 3 (2014) WEBRip NL subs DIVX NLtoppers     583 210 1.27 Gb 2 days ago

Taken 3(2015)HDRip NL subs[DIVX]NLtoppers.avi Taken 3 (2014)WEBRip NL subs[DIVX]NL


English Only Please (2014) MMFF CAMRip cubeme     491 475 1.58 Gb 7 days ago

English Only Please (2014) MMFF CAMRip [cubeme].avi English Only Please (2014)


Modern Family Season 04 HDTV XviD     428 85 4.12 Gb 2 years ago

Modern.Family.S04E01.HDTV.XviD-AFG.avi Modern.Family.S04E02.HDTV.XviD-AFG.avi 0f


Brat'ja po obmenu (2013) DivX SATRip 394 27 5.01 Gb 1 year ago

Brat'ja.po.obmenu.(10.serija.iz.10).(2013).DivX.SATRip.avi Brat'ja.po.ob


DivX Plus 10 2 2 Build 10 2 1 82 + Keygenerator 353 228 78.43 Mb 4 months ago

divxsetup.exe Keygen.e


DivX Play 10 2 2 335 223 77.03 Mb 26 days ago

DivX Play 10.2.2.exe ReadMe.nfo Torrent downloaded from Kickass.to.txt DivX Play 10.2.2 crac


ODFB 040     280 296 1.11 Gb 3 days ago

ODFB-040.avi ODFB-040.jpg ODFB-040_s.jpg ZoneZeed@DailyJAV.txt


Le Monde de Nemo FRENCH DVDRip DiVX Ulysse     263 9 700.9 Mb 4 years ago

nemo-fr.avi nemo-fr.nfo


 

related search cloud

 bambola  divx