Torrent Search | Torrent Meta Search | Widgets

DivX ITA Bambola

699.8 Mb
found 4 years ago
▲ seeders: 1 ▼ leechers:1
your vote:
real:
fake:
Direct Download
THANK YOU
download torrent
  Direct Downloadsponsored

DivX ITA Bambola torrent

Information about the torrent DivX ITA Bambola. Seeders, leechers and torrent status is updated everyday.

If you want to download the video torrent DivX ITA Bambola you will need a torrent client.

Torrent Metasearch.

tracker
seeders
leechers
↓ torrent client compatible list

↑ hide torrent client compatible list

Help torrentproject.se to stay alive .
Add links of torrentproject.se in your favorite forum, blog, youtube, facebook, twitter etc.
reviews
140
torrent contents

[DivX-ITA] Bambola.avi torrent

[DivX-ITA] Bambola.avi699.8 Mb torrent search

Sample info:
Duration: 01:31:36.76, start: 0.000000, bitrate: 1067 kb/s
Stream #0.0: Video: mpeg4, yuv420p, 512x288 [PAR 1:1 DAR 16:9], 25.00 tb(r)
Stream #0.1: Audio: mp3, 44100 Hz, stereo, 128 kb/s
you may be interested in these torrents seeders leechers size found
AniFilm Kansen 2 MVO 1437 27 664.15 Mb 1 year ago

[AniFilm] Kansen 2 ~Inzai Toshi~ [OVA] [1 of 2] [704x396 WMV9 Censored] [Ru Jp] [MVO].mkv [AniFilm] Ka


AniFilm Elemental Gelade TV MC entertainment 765 1 4.32 Gb 1 year ago

[AniFilm] Elemental Gelade [TV] [22 of 26] [640x480 DivX] [Ru] [MC entertainment].avi


Dear Food Network Grilling Week (2009) Alton Brown and Aaron McCargo May 26th 2009 734 416 390.26 Mb 3 years ago

Dear Food Network - Grilling Week(2009)- Alton Brown a


Nikola Tesla Afera genija (2011) DivX SATRip ExKinoRay 732 13 614.55 Mb 2 months ago

Nikola.Tesla.Afera.genija.2011.DivX.SATRip.ExKinoRay.avi


AniFilm Kodomo no Omocha Lali 627 87 2.57 Gb 2 years ago

[AniFilm] Kodomo no Omocha [TV] [009 of 102] [DivX 576x432 AC3] [Ru Jp] [Lali].avi [AniFilm]


AniFilm City Hunter Million Dollar Conspiracy Ranmaru 624 0 616.11 Mb 1 year ago

[AniFilm] City Hunter Million Dollar Conspiracy [Movie] [640x4800 Divx] [Ru Jp] [Ranm


AniFilm Yu Gi Oh! Duel Monsters TV Mustadio 555 0 1.33 Gb 1 month ago

[AniFilm] Yu-Gi-Oh! - Duel Monsters - 01 [TV] [DVDRip 480p DivX 5] [Mustadio].mkv


AniFilm Ergo Proxy Tv MC entertainment 546 7 4.06 Gb 1 year ago

[AniFilm] Ergo Proxy [TV] [23 of 23] [640x368 DivX] [Ru] [MC entertainment].avi [


AniFilm Samurai 7 MC entertainment 499 8 4.32 Gb 1 year ago

[AniFilm] Samurai 7 [TV] [19 of 26] [640x368 DivX] [Ru] [MC entertainment].avi [AniFilm]


DivX Plus Pro 8 2 0 Build 1 8 4 17 421 45 45.07 Mb 3 years ago

DivXInstaller.exe LEEME - README.txt reg.x86.x64.reg unreg.reg


 

related search cloud

 bambola  divx