Torrent Search | Torrent Meta Search | Widgets

DivX ITA Bambola

699.8 Mb
found 4 years ago
▲ seeders: 1 ▼ leechers:2
your vote:
real:
fake:
THANK YOU
download torrent
  Direct Downloadsponsored

DivX ITA Bambola torrent

Information about the torrent DivX ITA Bambola. Seeders, leechers and torrent status is updated everyday.

If you want to download the video torrent DivX ITA Bambola you will need a torrent client.

Torrent Metasearch.

tracker
seeders
leechers
↓ torrent client compatible list

↑ hide torrent client compatible list

reviews
140
torrent contents

[DivX-ITA] Bambola.avi torrent

[DivX-ITA] Bambola.avi699.8 Mb torrent search

Sample info:
Duration: 01:31:36.76, start: 0.000000, bitrate: 1067 kb/s
Stream #0.0: Video: mpeg4, yuv420p, 512x288 [PAR 1:1 DAR 16:9], 25.00 tb(r)
Stream #0.1: Audio: mp3, 44100 Hz, stereo, 128 kb/s
you may be interested in these torrents seeders leechers size found
PK (2014) Hindi 1CD Pre DVDRip XviD AAC By TG1        410 1 1014.54 Mb 2 months ago

Cover.jpg PK [2014] Hindi (1CD) Pre-DvDRip x264 AAC By TG.mkv_thumbs_[2014.12.24_1


Le Monde de Nemo FRENCH DVDRip DiVX Ulysse     371 25 700.9 Mb 4 years ago

nemo-fr.avi nemo-fr.nfo


Modern Family Season 04 HDTV XviD     343 54 4.12 Gb 2 years ago

Modern.Family.S04E01.HDTV.XviD-AFG.avi Modern.Family.S04E02.HDTV.XviD-AFG.avi 0f


Studenti razvratniki (2006) DviX DVDRip divx        297 18 734.38 Mb 3 years ago

Studenti-razvratniki.2006.DviX.DVDRip.divx


Fifty Shades OF Gray (2015) ENGLiSH NEWCAM MURD3R     280 69 1.25 Gb 14 days ago

Fifty Shades OF Gray 2015 ENGLiSH NEWCAM MURD3R.mkv vlcsnap-2015-02-16-16h40m2


Home Sweet Hell (2015) HDRip divx     255 30 981.5 Mb 27 days ago

Home Sweet Hell 2015 HDRip-divx.avi Torrent Downloaded From ExtraTorrent.cc.txt


Toy Story FRENCH DVDRip DivX     234 12 700.82 Mb 4 years ago

Toy.Story.FRENCH.DVDRiP.DivX.avi


Toy Story 2 FRENCH DVDRip DivX     208 13 701.02 Mb 4 years ago

Toy.Story.2.FRENCH.DVDRiP.DivX.avi


Nikola Tesla Afera genija (2011) DivX SATRip ExKinoRay 195 4 614.55 Mb 7 months ago

Nikola.Tesla.Afera.genija.2011.DivX.SATRip.ExKinoRay.avi


Jeux d'enfants        175 3 696.91 Mb 3 years ago

Jeux d'enfants.avi


 

related search cloud

 bambola  divx