Torrent Search | Torrent Meta Search | Widgets

DivX ITA Bambola

699.8 Mb
found 4 years ago
▲ seeders: 1 ▼ leechers:1
your vote:
real:
fake:
Direct Download
THANK YOU
download torrent
  Direct Downloadsponsored

DivX ITA Bambola torrent

Information about the torrent DivX ITA Bambola. Seeders, leechers and torrent status is updated everyday.

If you want to download the video torrent DivX ITA Bambola you will need a torrent client.

Torrent Metasearch.

tracker
seeders
leechers
↓ torrent client compatible list

↑ hide torrent client compatible list

Help torrentproject.se to stay alive .
Add links of torrentproject.se in your favorite forum, blog, youtube, facebook, twitter etc.
reviews
140
torrent contents

[DivX-ITA] Bambola.avi torrent

[DivX-ITA] Bambola.avi699.8 Mb torrent search

Sample info:
Duration: 01:31:36.76, start: 0.000000, bitrate: 1067 kb/s
Stream #0.0: Video: mpeg4, yuv420p, 512x288 [PAR 1:1 DAR 16:9], 25.00 tb(r)
Stream #0.1: Audio: mp3, 44100 Hz, stereo, 128 kb/s
you may be interested in these torrents seeders leechers size found
AniFilm Kodomo no Omocha Lali 1041 142 2.57 Gb 2 years ago

[AniFilm] Kodomo no Omocha [TV] [009 of 102] [DivX 576x432 AC3] [Ru Jp] [Lali].avi [AniFilm]


AniFilm Ergo Proxy Tv MC entertainment 936 7 4.06 Gb 1 year ago

[AniFilm] Ergo Proxy [TV] [23 of 23] [640x368 DivX] [Ru] [MC entertainment].avi [


AniFilm Elemental Gelade TV MC entertainment 765 1 4.32 Gb 1 year ago

[AniFilm] Elemental Gelade [TV] [22 of 26] [640x480 DivX] [Ru] [MC entertainment].avi


DivX Plus Pro 8 2 0 Build 1 8 4 17 421 44 45.07 Mb 3 years ago

DivXInstaller.exe LEEME - README.txt reg.x86.x64.reg unreg.reg


I Frankenstein (2014) DVDRip DiVX MP3 ART3MiS 380 5 1.02 Gb 8 months ago

I, Frankenstein 2014 DVDRiP.DiVX.MP3-ART3MiS.avi I, Frankenstein 2014 DVDRiP.DiVX


Nikola Tesla Afera genija (2011) DivX SATRip ExKinoRay 357 7 614.55 Mb 3 months ago

Nikola.Tesla.Afera.genija.2011.DivX.SATRip.ExKinoRay.avi


DivX Plus Pro v821 18524 by tano1221 347 39 45.86 Mb 3 years ago

DivXInstaller.exe README.txt reg.x86.x64.reg unreg.reg


Modern Family Season 04 HDTV XviD     347 58 4.12 Gb 1 year ago

Modern.Family.S04E01.HDTV.XviD-AFG.avi Modern.Family.S04E02.HDTV.XviD-AFG.avi 0f


Suchjy vojny (2014) DivX SATRip ExKinoRay 327 34 5 Gb 22 days ago

Suchjy.vojny.(7.serija.iz.8).2014.DivX.SATRip.ExKinoRay.avi Suchjy.vojny.(2.serija.iz.8


Disney The Little Mermaid (1989) DVD DivX     288 19 679.82 Mb 4 years ago

Disney - The Little Mermaid (1989) DVD-DivX.avi


 

related search cloud

 bambola  divx