Torrent Search | Torrent Meta Search | Widgets

DivX ITA Bambola

699.8 Mb
found 4 years ago
▲ seeders: 1 ▼ leechers:0
your vote:
real:
fake:
THANK YOU
download torrent

DivX ITA Bambola torrent

Information about the torrent DivX ITA Bambola. Seeders, leechers and torrent status is updated everyday.

If you want to download the video torrent DivX ITA Bambola you will need a torrent client.

Torrent Metasearch.

No trackers with seeders or leechers have been found, this doesn't mean that the torrent DivX ITA Bambola is dead
reviews
140
torrent contents

[DivX-ITA] Bambola.avi torrent

[DivX-ITA] Bambola.avi699.8 Mb torrent search

Sample info:
Duration: 01:31:36.76, start: 0.000000, bitrate: 1067 kb/s
Stream #0.0: Video: mpeg4, yuv420p, 512x288 [PAR 1:1 DAR 16:9], 25.00 tb(r)
Stream #0.1: Audio: mp3, 44100 Hz, stereo, 128 kb/s
you may be interested in these torrents seeders leechers size found
Nikola Tesla Afera genija (2011) DivX SATRip ExKinoRay 489 7 614.55 Mb 4 months ago

Nikola.Tesla.Afera.genija.2011.DivX.SATRip.ExKinoRay.avi


Le Monde de Nemo FRENCH DVDRip DiVX Ulysse     354 27 700.9 Mb 4 years ago

nemo-fr.avi nemo-fr.nfo


Frosty the Snowman     309 16 251.34 Mb 1 year ago

Frosty the Snowman.avi Image.jpg Readme.txt


Ischu poputchika (2014) DivX SATRip ExKinoRay 306 9 1.24 Gb 1 month ago

Ischu.poputchika.2014.DivX.SATRip.ExKinoRay.avi


Le Placard FRENCH DVDRip DivX 305 29 697.44 Mb 2 years ago

Le.Placard.FRENCH.DVDRiP.DivX.avi


L Etrange Noel De Monsieur Jack FRENCH DVDRip DivX     290 25 699.84 Mb 2 years ago

L.Etrange.Noel.De.Monsieur.Jack.FRENCH.DVDRiP.DivX.avi


Suchjy vojny (2014) DivX SATRip ExKinoRay 280 23 5 Gb 2 months ago

Suchjy.vojny.(7.serija.iz.8).2014.DivX.SATRip.ExKinoRay.avi Suchjy.vojny.(2.serija.iz.8


Jeux d'enfants     247 10 696.91 Mb 3 years ago

Jeux d'enfants.avi


Les Trois Freres FRENCH DVDRip DivX     242 6 702.84 Mb 2 years ago

Les.Trois.Freres.FRENCH.DVDRiP.DivX.avi


Minuscule Valley of the Lost Ants (2014)     223 11 888.75 Mb 7 months ago

Minuscule Valley of the Lost Ants (2014)-divx.avi Torrent Downloaded From ExtraTorrent


 

related search cloud

 bambola  divx