Torrent Search | Torrent Meta Search | Widgets

DivX ITA Bambola

699.8 Mb
found 4 years ago
▲ seeders: 1 ▼ leechers:1
your vote:
real:
fake:
THANK YOU
download torrent
  Direct Downloadsponsored

DivX ITA Bambola torrent

Information about the torrent DivX ITA Bambola. Seeders, leechers and torrent status is updated everyday.

If you want to download the video torrent DivX ITA Bambola you will need a torrent client.

Torrent Metasearch.

tracker
seeders
leechers
↓ torrent client compatible list

↑ hide torrent client compatible list

reviews
140
torrent contents

[DivX-ITA] Bambola.avi torrent

[DivX-ITA] Bambola.avi699.8 Mb torrent search

Sample info:
Duration: 01:31:36.76, start: 0.000000, bitrate: 1067 kb/s
Stream #0.0: Video: mpeg4, yuv420p, 512x288 [PAR 1:1 DAR 16:9], 25.00 tb(r)
Stream #0.1: Audio: mp3, 44100 Hz, stereo, 128 kb/s
you may be interested in these torrents seeders leechers size found
AniFilm Kodomo no Omocha Lali 1041 142 2.57 Gb 2 years ago

[AniFilm] Kodomo no Omocha [TV] [009 of 102] [DivX 576x432 AC3] [Ru Jp] [Lali].avi [AniFilm]


AniFilm Elemental Gelade TV MC entertainment 765 1 4.32 Gb 1 year ago

[AniFilm] Elemental Gelade [TV] [22 of 26] [640x480 DivX] [Ru] [MC entertainment].avi


Nikola Tesla Afera genija (2011) DivX SATRip ExKinoRay 401 19 614.55 Mb 4 months ago

Nikola.Tesla.Afera.genija.2011.DivX.SATRip.ExKinoRay.avi


Mind Your Language Best Of Vol 4 (1978) DVDRip DivX BOETiE202 382 148 715.91 Mb 4 years ago

Folder.jpg Mind Your Language Best Of Vol.4 (1978) [DVDRiP (DivX)]


DivX Plus Pro v821 18524 by tano1221 347 39 45.86 Mb 3 years ago

DivXInstaller.exe README.txt reg.x86.x64.reg unreg.reg


Ischu poputchika (2014) DivX SATRip ExKinoRay 315 15 1.24 Gb 12 days ago

Ischu.poputchika.2014.DivX.SATRip.ExKinoRay.avi


Le Monde de Nemo FRENCH DVDRip DiVX Ulysse     300 8 700.9 Mb 4 years ago

nemo-fr.avi nemo-fr.nfo


Cpasbien pe Gad Elmaleh Decalages FRENCH DVDRip DivX 277 65 689.53 Mb 10 days ago

[www.Cpasbien.pe] Gad.Elmaleh.Decalages.FRENCH.DVDRiP.DivX.avi


Zaezzhij molodec (2014) DivX SATRip ExKinoRay 244 9 1.29 Gb 1 month ago

Zaezzhij.molodec.2014.DivX.SATRip.ExKinoRay.avi


Cpasbien pe Gad Elmaleh La Vie Normale FRENCH DVDRip DivX 237 44 634.08 Mb 11 days ago

[www.Cpasbien.pe] Gad.Elmaleh.La.Vie.Normale.FRENCH.DVDRiP.DivX.avi


 

related search cloud

 bambola  divx