Torrent Search | Torrent Meta Search | Widgets

DivX ITA Bambola

699.8 Mb
found 4 years ago
▲ seeders: 1 ▼ leechers:1
your vote:
real:
fake:
download torrent

DivX ITA Bambola torrent

Information about the torrent DivX ITA Bambola. Seeders, leechers and torrent status is updated everyday.

If you want to download the video torrent DivX ITA Bambola you will need a torrent client.

Torrent Metasearch.

tracker
seeders
leechers
↓ torrent client compatible list

↑ hide torrent client compatible list

reviews
140
torrent contents

[DivX-ITA] Bambola.avi torrent

[DivX-ITA] Bambola.avi699.8 Mb torrent search

Sample info:
Duration: 01:31:36.76, start: 0.000000, bitrate: 1067 kb/s
Stream #0.0: Video: mpeg4, yuv420p, 512x288 [PAR 1:1 DAR 16:9], 25.00 tb(r)
Stream #0.1: Audio: mp3, 44100 Hz, stereo, 128 kb/s
you may be interested in these torrents seeders leechers size found
English Only Please (2014) MMFF CAMRip cubeme   1        445 147 1.58 Gb 2 months ago

English Only Please (2014) MMFF CAMRip [cubeme].avi English Only Please (2014)


Studenti razvratniki (2006) DviX DVDRip divx        281 14 734.38 Mb 3 years ago

Studenti-razvratniki.2006.DviX.DVDRip.divx


Le Monde de Nemo FRENCH DVDRip DiVX Ulysse     272 11 700.9 Mb 4 years ago

nemo-fr.avi nemo-fr.nfo


Modern Family Season 04 HDTV XviD        229 34 4.12 Gb 2 years ago

Modern.Family.S04E01.HDTV.XviD-AFG.avi Modern.Family.S04E02.HDTV.XviD-AFG.avi 0f


Nikola Tesla Afera genija (2011) DivX SATRip ExKinoRay 219 4 614.55 Mb 8 months ago

Nikola.Tesla.Afera.genija.2011.DivX.SATRip.ExKinoRay.avi


PK (2014) Hindi 1CD Pre DVDRip XviD AAC By TG   1        216 1 1014.54 Mb 3 months ago

Cover.jpg PK [2014] Hindi (1CD) Pre-DvDRip x264 AAC By TG.mkv_thumbs_[2014.12.24_1


Matrix Revolution DVDRip divx fr by FunMaster 184 15 1.38 Gb 4 years ago

Matrix.Revolution.Dvdrip.divx.fr.by.FunMaster.avi


Toy Story FRENCH DVDRip DivX     170 7 700.82 Mb 4 years ago

Toy.Story.FRENCH.DVDRiP.DivX.avi


The Cobbler (2014) 720p HQ AC3 DD5 1 eng nl subs TBS 159 40 2.87 Gb 7 days ago

]ten.srevoCeerF.www[-]dc[-MOTSUC_0R_)5102(_relbboC_ehT.jpg ]te


Дьявол носит Прада 157 6 1.37 Gb 4 years ago

30450.jpg Djavol.nosit.prada.2006.DivX.DVDRip.avi


 

related search cloud

 bambola  divx