Torrent Search | Torrent Meta Search | Widgets

The Ottoman Lieutenant (2017) 1080p YTS AG

1.68 Gb
found 7 days ago
▲ seeders: 1278 ▼ leechers:299
your vote:
real:
fake:
download torrent

The Ottoman Lieutenant (2017) 1080p YTS AG torrent

Information about the torrent The Ottoman Lieutenant (2017) 1080p YTS AG. Seeders, leechers and torrent status is updated several times per day.

If you want to download the hdrip torrent The Ottoman Lieutenant (2017) 1080p YTS AG you will need a torrent client.

Torrent Metasearch.

tracker
seeders
leechers
↓ torrent client compatible list

↑ hide torrent client compatible list

torrent contents

The Ottoman Lieutenant (2017) [1080p] [YTS.AG] torrent

The Ottoman Lieutenant (2017) [1080p] [YTS.AG]
WWW.YTS.AG.jpg103.35 Kb torrent search
The.Ottoman.Lieutenant.2017.1080p.BluRay.x264-[YTS.AG].mp41.68 Gb torrent search

Sample info:
Duration: 01:50:35.68, start: 0.042667, bitrate: 2179 kb/s
Stream #0:0	: Video: h264 (High) (avc1 / 0x31637661), yuv420p, 1920x800 [SAR 1:1 DAR 12:5], 2049 kb/s, 23.98 fps, 23.98 tbr, 24k tbn, 47.95 tbc (default)
handler_name	: VideoHandler
Stream #0:1	: Audio: aac (LC) (mp4a / 0x6134706D), 48000 Hz, stereo, fltp, 123 kb/s (default)
handler_name	: SoundHandler
screenshots
Images are auto generated please report any inapropriate images
 

related search cloud

 ottoman  lieutenant  bluray