Torrent Search | Torrent Meta Search | Widgets

La semilla del diablo (1968) DVDRip Spanish

       
704.35 Mb
found 3 years ago
▲ seeders: 3 ▼ leechers:1
your vote:
real:
fake:
download torrent

La semilla del diablo (1968) DVDRip Spanish torrent

Information about the torrent La semilla del diablo (1968) DVDRip Spanish. Seeders, leechers and torrent status is updated everyday.

If you want to download the dvdrip torrent La semilla del diablo (1968) DVDRip Spanish you will need a torrent client.

Torrent Metasearch.

.

tracker
seeders
leechers
↓ torrent client compatible list

↑ hide torrent client compatible list

comments/reviews
140
torrent contents

La semilla del diablo (1968) [DVDRIP][Spanish][www.bricocine.com].avi torrent

La semilla del diablo (1968) [DVDRIP][Spanish][www.bricocine.com].avi704.35 Mb torrent search

Sample info:
Duration: 02:11:06.48, start: 0.000000, bitrate: 751 kb/s
Stream #0.0: Video: mpeg4, yuv420p, 624x352 [PAR 1:1 DAR 39:22], 25 fps, 25 tbr, 25 tbn, 30k tbc
Stream #0.1: Audio: mp3, 44100 Hz, stereo, s16, 111 kb/s
screenshots
Images are auto generated please report any inapropriate images
 

related search cloud

 bricocine  spanish  dvdrip  diablo  semilla