Torrent Search | Torrent Meta Search | Widgets

GotWoot Nana to Kaoru Chapter Two Live Action Movie DVD h264 AC3 98A429C7 mkv

568.32 Mb
found 2 years ago
▲ seeders: 6 ▼ leechers:2
your vote:
real:
fake:
Direct Download
THANK YOU
download torrent
  Direct Downloadsponsored

GotWoot Nana to Kaoru Chapter Two Live Action Movie DVD h264 AC3 98A429C7 mkv torrent

Information about the torrent GotWoot Nana to Kaoru Chapter Two Live Action Movie DVD h264 AC3 98A429C7 mkv. Seeders, leechers and torrent status is updated several times per day.

If you want to download the video torrent GotWoot Nana to Kaoru Chapter Two Live Action Movie DVD h264 AC3 98A429C7 mkv you will need a torrent client.

Torrent Metasearch.

tracker
seeders
leechers
↓ torrent client compatible list

↑ hide torrent client compatible list

Help torrentproject.se to stay alive .
Add links of torrentproject.se in your favorite forum, blog, youtube, facebook, twitter etc.
reviews
140
torrent contents

[GotWoot]_Nana_to_Kaoru_-_Chapter_Two_(Live_Action_Movie)_[DVD][h264_AC3][98A429C7].mkv torrent

[GotWoot]_Nana_to_Kaoru_-_Chapter_Two_(Live_Action_Movie)_[DVD][h264_AC3][98A429C7].mkv568.32 Mb torrent search

Sample info:
Duration: 01:14:59.84, start: 0.000000, bitrate: 448 kb/s
Stream #0.0(jpn): Video: h264 (High 10), yuv420p10le, 720x480, PAR 186:157 DAR 279:157, 29.97 fps, 29.97 tbr, 1k tbn, 59.94 tbc (default)
title	: 480p 10bit source: DVDISO
Stream #0.1(jpn): Audio: ac3, 48000 Hz, stereo, s16, 448 kb/s (default)
title	: Original AC3
Stream #0.2(eng): Subtitle: ass (default)
title	: engg
Shinn Medium Italic.ttf
mimetype	: application/x-truetype-font
Shinn Medium.ttf
mimetype	: application/x-truetype-font
BT.ttf
mimetype	: application/x-truetype-font
Candara.ttf
mimetype	: application/x-truetype-font
mimetype	: application/x-truetype-font
screenshots
GotWoot Nana to Kaoru torrent screenshot 857C9C2C08BECC4DB4E6DA42B2AC39A2C65161B3 GotWoot Nana to Kaoru  torrent screenshot 857c9c2c08becc4db4e6da42b2ac39a2c65161b3 torrent GotWoot Nana to Kaoru
[GotWoot]_Nana_to_Kaoru_-_Chapter_Two_(Live_Action_Movie)_[DVD][h264_AC3][98A429C7].mkv images are auto generated please report any inapropriate images
you may be interested in these torrents seeders leechers size found
GotWoot Nana to Kaoru Live Action Movie DVD h264 AAC 565F8BA3 mkv 3 1 602.14 Mb 3 years ago

[GotWoot]_Nana_to_Kaoru_(Live_Action_Movie)_[DVD][h264_AAC][565F8BA3].mkv


GotWoot Nana to Kaoru OAD 01 DVD h264 AAC 24DC80EA mkv     1 1 170.64 Mb 3 years ago

[GotWoot]_Nana_to_Kaoru_(OAD)_01_[DVD][h264_AAC][24DC80EA].mkv


 

related search cloud

 action  movie  live  chapter  nana  kaoru  gotwoot