Torrent Search | Torrent Meta Search | Widgets

Estrella 41 year old hot Central American cougar MomPov (2013)

1.82 Gb
found 2 years ago
▲ seeders: 3 ▼ leechers:2
your vote:
real:
fake:
Direct Download
THANK YOU
download torrent
  Direct Downloadsponsored

Estrella 41 year old hot Central American cougar MomPov (2013) torrent

Information about the torrent Estrella 41 year old hot Central American cougar MomPov (2013). Seeders, leechers and torrent status is updated everyday.

If you want to download the video torrent Estrella 41 year old hot Central American cougar MomPov (2013) you will need a torrent client.

Torrent Metasearch.

tracker
seeders
leechers
↓ torrent client compatible list

↑ hide torrent client compatible list

Help torrentproject.se to stay alive .
Add links of torrentproject.se in your favorite forum, blog, youtube, facebook, twitter etc.
reviews
140
torrent contents

Estrella.41.year.old.hot.Central.American.cougar.MomPov.2013.HD_iyutero.com.mp4 torrent

Estrella.41.year.old.hot.Central.American.cougar.MomPov.2013.HD_iyutero.com.mp41.82 Gb torrent search

Sample info:
Duration: 00:50:08.34, start: 0.000000, bitrate: 5186 kb/s
Stream #0.0(eng): Video: h264 (Main), yuv420p, 1280x720 [PAR 1:1 DAR 16:9], 4993 kb/s, 29.97 fps, 29.97 tbr, 29970 tbn, 59.94 tbc
creation_time	: 2013-01-17 10:19:03
Stream #0.1(eng): Audio: aac, 48000 Hz, stereo, s16, 189 kb/s
creation_time	: 2013-01-17 10:19:03
screenshots
Estrella 41 year old torrent screenshot 86929A0D1C4037660A57ED9B6A4F12EE2E2EBF94 Estrella 41 year old  torrent screenshot 86929a0d1c4037660a57ed9b6a4f12ee2e2ebf94 torrent Estrella 41 year old
Estrella.41.year.old.hot.Central.American.cougar.MomPov.2013.HD_iyutero.com.mp4 images are auto generated please report any inapropriate images
 

related search cloud

 mompov  iyutero  cougar  american  year  central  estrella