Torrent Search | Torrent Meta Search | Widgets

Once Upon a Time in Venice (2017) 1080p WEB DL DD5 1 H264 FGT

3.27 Gb
found 12 days ago
▲ seeders: 1205 ▼ leechers:452
your vote:
real:
fake:
download torrent

Once Upon a Time in Venice (2017) 1080p WEB DL DD5 1 H264 FGT torrent

Information about the torrent Once Upon a Time in Venice (2017) 1080p WEB DL DD5 1 H264 FGT. Seeders, leechers and torrent status is updated everyday.

If you want to download the hdrip torrent Once Upon a Time in Venice (2017) 1080p WEB DL DD5 1 H264 FGT you will need a torrent client.

Torrent Metasearch.

tracker
seeders
leechers
↓ torrent client compatible list

↑ hide torrent client compatible list

torrent contents

Once.Upon.a.Time.in.Venice.2017.1080p.WEB-DL.DD5.1.H264-FGT torrent

Once.Upon.a.Time.in.Venice.2017.1080p.WEB-DL.DD5.1.H264-FGT
English.srt103.12 Kb torrent search
Once.Upon.a.Time.in.Venice.2017.1080p.WEB-DL.DD5.1.H264-FGT.mkv3.27 Gb torrent search
Once.Upon.a.Time.in.Venice.2017.1080p.WEB-DL.DD5.1.H264-FGT.nfo4.4 Kb torrent search
RARBG.txt31 bytes torrent search

Sample info:
Duration: 01:34:07.02, start: 0.000000, bitrate: 4969 kb/s
Stream #0:0(eng): Video: h264 (High), yuv420p(tv, bt709), 1912x792 [SAR 1:1 DAR 239:99], 23.98 fps, 23.98 tbr, 1k tbn, 2k tbc (default)
title	: Once.Upon.a.Time.in.Venice.2017.1080p.WEB-DL.DD5.1.H264-FGT
Stream #0:1(eng): Audio: ac3, 48000 Hz, 5.1(side), fltp, 384 kb/s (default)
title	: Once.Upon.a.Time.in.Venice.2017.1080p.WEB-DL.DD5.1.H264-FGT
Stream #0:2(eng): Subtitle: subrip (default)
Stream #0:3: Attachment: mjpeg
filename	: cover.jpg
mimetype	: image/jpeg
Stream #0:4: Attachment: mjpeg
filename	: cover_land.jpg
mimetype	: image/jpeg
Stream #0:5: Attachment: mjpeg
filename	: small_cover.jpg
mimetype	: image/jpeg
Stream #0:6: Attachment: mjpeg
filename	: small_cover_land.jpg
mimetype	: image/jpeg
screenshots
Images are auto generated please report any inapropriate images
 

related search cloud

 venice  once  time  upon  rarbg  english