Torrent Search | Torrent Meta Search | Widgets

La Biblia 12 Salomon El Acceso al Trono DVDRip Spanish

       
781.31 Mb
found 3 years ago
▲ seeders: 1 ▼ leechers:2
your vote:
real:
fake:
Direct Download
THANK YOU
download torrent
  Direct Downloadsponsored

La Biblia 12 Salomon El Acceso al Trono DVDRip Spanish torrent

Information about the torrent La Biblia 12 Salomon El Acceso al Trono DVDRip Spanish. Seeders, leechers and torrent status is updated everyday.

If you want to download the dvdrip torrent La Biblia 12 Salomon El Acceso al Trono DVDRip Spanish you will need a torrent client.

Torrent Metasearch.

Torrent verified by kat.ph.

tracker
seeders
leechers
↓ torrent client compatible list

↑ hide torrent client compatible list

Help torrentproject.se to stay alive .
Add links of torrentproject.se in your favorite forum, blog, youtube, facebook, twitter etc.
reviews
140
torrent contents

La Biblia - 12 Salomon El Acceso al Trono [DVDRip][Spanish][www.lokotorrents.com] torrent

La Biblia - 12 Salomon El Acceso al Trono [DVDRip][Spanish][www.lokotorrents.com]
12 - Salomón (El acceso al trono)www.lokotorrents.com.mpg781.31 Mb torrent search

Sample info:
Duration: 01:24:47.55, start: 0.393789, bitrate: 1288 kb/s
Stream #0.0[0x1e0]: Video: mpeg1video, yuv420p, 352x288 [PAR 178:163 DAR 1958:1467], 104857 kb/s, 25 fps, 25 tbr, 90k tbn, 25 tbc
Stream #0.1[0x1c0]: Audio: mp2, 44100 Hz, 2 channels, s16, 128 kb/s
screenshots
La Biblia 12 Salomon torrent screenshot 87A217A79C982D8AEB03D7310ED2A3BB7CD0BEA1 La Biblia 12 Salomon  torrent screenshot 87a217a79c982d8aeb03d7310ed2a3bb7cd0bea1 torrent La Biblia 12 Salomon
La Biblia - 12 Salomon El Acceso al Trono [DVDRip][Spanish][www.lokotorrents.com] images are auto generated please report any inapropriate images
 

related search cloud

 lokotorrents  acceso  trono  salom  salomon  spanish  dvdrip  biblia