Torrent Search | Torrent Meta Search | Widgets

National Geographic Taboo Season 2 (2003) DVDRip Eng Kole

       
4.45 Gb
found 5 years ago
▲ seeders: 3 ▼ leechers:2
your vote:
real:
fake:
download torrent

National Geographic Taboo Season 2 (2003) DVDRip Eng Kole torrent

Information about the torrent National Geographic Taboo Season 2 (2003) DVDRip Eng Kole. Seeders, leechers and torrent status is updated everyday.

If you want to download the tv torrent National Geographic Taboo Season 2 (2003) DVDRip Eng Kole you will need a torrent client.

Torrent Metasearch.

.

tracker
seeders
leechers
↓ torrent client compatible list

↑ hide torrent client compatible list

comments/reviews
140
torrent contents

National.Geographic.Taboo.Season.2 (2003) DVDrip[Eng]-Kole torrent

National.Geographic.Taboo.Season.2[2003]DVDrip[Eng]-Kole
National.Geographic.Taboo.S02E01.Delicacies-Kole.avi350.14 Mb torrent search
National.Geographic.Taboo.S02E02.Child Rearing-Kole.avi350.11 Mb torrent search
National.Geographic.Taboo.S02E03.After Death-Kole.avi350.09 Mb torrent search
National.Geographic.Taboo.S02E04.Justice-Kole.avi350.11 Mb torrent search
National.Geographic.Taboo.S02E05.Creature Cures-Kole.avi350.09 Mb torrent search
National.Geographic.Taboo.S02E06.Body Perfect-Kole.avi350.23 Mb torrent search
National.Geographic.Taboo.S02E07.Outcasts-Kole.avi350.23 Mb torrent search
National.Geographic.Taboo.S02E08.Sacred Pain-Kole.avi350.23 Mb torrent search
National.Geographic.Taboo.S02E09.Extreme Entertainers-Kole.avi350.24 Mb torrent search
National.Geographic.Taboo.S02E10.Blood Bonds-Kole.avi350.06 Mb torrent search
National.Geographic.Taboo.S02E11.Gross Work-Kole.avi350.1 Mb torrent search
National.Geographic.Taboo.S02E12.Marks of Identity-Kole.avi350.04 Mb torrent search
National.Geographic.Taboo.S02E13.Initiation-Kole.avi350.09 Mb torrent search

Sample info:
Duration: 00:47:01.95, start: 0.000000, bitrate: 1041 kb/s
Stream #0.0: Video: mpeg4 (Advanced Simple Profile), yuv420p, 384x288 [PAR 1:1 DAR 4:3], 29.97 tbr, 29.97 tbn, 29.98 tbc
Stream #0.1: Audio: ac3, 48000 Hz, stereo, s16, 192 kb/s
screenshots
Images are auto generated please report any inapropriate images
 

related search cloud

 kole  taboo  national  geographic  entertainers  extreme  pain  sacred  blood  work