Torrent Search | Torrent Meta Search | Widgets

Little Man (2006) DVDRip Eng aXXo

       
701.56 Mb
found 5 years ago
▲ seeders: 16 ▼ leechers:2
your vote:
real:
fake:
download torrent

Little Man (2006) DVDRip Eng aXXo torrent

Information about the torrent Little Man (2006) DVDRip Eng aXXo. Seeders, leechers and torrent status is updated several times per day.

If you want to download the dvdrip torrent Little Man (2006) DVDRip Eng aXXo you will need a torrent client.

Torrent Metasearch.

.

tracker
seeders
leechers
↓ torrent client compatible list

↑ hide torrent client compatible list

comments/reviews
140
torrent contents

Little.Man (2006) DvDrip[Eng]-aXXo torrent

Little.Man[2006]DvDrip[Eng]-aXXo
Little.Man[2006]DvDrip[Eng]-aXXo.avi701.55 Mb torrent search
little.man-aXXo.nfo7.22 Kb torrent search

Sample info:
Duration: 01:37:39.06, start: 0.000000, bitrate: 1004 kb/s
Stream #0.0: Video: mpeg4 (Advanced Simple Profile), yuv420p, 564x298 [PAR 1:1 DAR 282:149], 23.98 fps, 23.98 tbr, 23.98 tbn, 23.98 tbc
Stream #0.1: Audio: mp3, 48000 Hz, 2 channels, s16, 112 kb/s
screenshots
Images are auto generated please report any inapropriate images
 

related search cloud

 little  axxo  dvdrip