Torrent Search | Torrent Meta Search | Widgets

G queen 432

945.77 Mb
found 1 year ago
▲ seeders: 3 ▼ leechers:2
your vote:
real:
fake:
Direct Download
THANK YOU
download torrent
  Direct Downloadsponsored

G queen 432 torrent

Information about the torrent G queen 432. Seeders, leechers and torrent status is updated everyday.

If you want to download the video torrent G queen 432 you will need a torrent client.

Torrent Metasearch.

tracker
seeders
leechers
↓ torrent client compatible list

↑ hide torrent client compatible list

Help torrentproject.se to stay alive .
Add links of torrentproject.se in your favorite forum, blog, youtube, facebook, twitter etc.
reviews
140
torrent contents

G-queen 432 torrent

G-queen 432
viertel_04.wmv273.14 Mb torrent search
viertel_02.wmv268.17 Mb torrent search
viertel_01.wmv225.26 Mb torrent search
viertel_03.wmv179.21 Mb torrent search

Sample info:
Duration: 00:14:37.48, start: 0.000000, bitrate: 2611 kb/s
Stream #0:0(jpn): Audio: wmav2 (a[1][0][0] / 0x0161), 44100 Hz, stereo, s16, 96 kb/s
Stream #0:1(jpn): Video: wmv3 (Main) (WMV3 / 0x33564D57), yuv420p, 1280x720, 2500 kb/s, 29.97 tbr, 1k tbn, 1k tbc
screenshots
G queen 432 torrent screenshot 8DA75403862BF70202BCCE4F6908EB03E23F76B5 G queen 432 torrent screenshot 8da75403862bf70202bcce4f6908eb03e23f76b5 torrent G queen 432
G-queen 432 images are auto generated please report any inapropriate images
 

related search cloud

 viertel  queen