Torrent Search | Torrent Meta Search | Widgets

The Boss Baby (2017) 720p HD TS AAC 2CH H 265 HEVC GunGravE mkv

604.96 Mb
found 4 months ago
▲ seeders: 208 ▼ leechers:49
your vote:
real:
fake:
download torrent

The Boss Baby (2017) 720p HD TS AAC 2CH H 265 HEVC GunGravE mkv torrent

Information about the torrent The Boss Baby (2017) 720p HD TS AAC 2CH H 265 HEVC GunGravE mkv. Seeders, leechers and torrent status is updated several times per day.

If you want to download the hdrip torrent The Boss Baby (2017) 720p HD TS AAC 2CH H 265 HEVC GunGravE mkv you will need a torrent client.

Torrent Metasearch.

tracker
seeders
leechers
↓ torrent client compatible list

↑ hide torrent client compatible list

torrent contents

The.Boss.Baby.2017.720p.HD-TS.AAC.[2CH.].H.265.[HEVC]-GunGravE.mkv torrent

The.Boss.Baby.2017.720p.HD-TS.AAC.[2CH.].H.265.[HEVC]-GunGravE.mkv604.96 Mb torrent search

Sample info:
Duration: 01:26:27.16, start: 0.000000, bitrate: 978 kb/s
Stream #0:0: Video: hevc (Main), yuv420p(tv), 1376x576 [SAR 1:1 DAR 43:18], 25 fps, 25 tbr, 1k tbn, 25 tbc (default)
BPS	: 879843
BPS-eng	: 879843
DURATION	: 01:26:27.160000000
DURATION-eng	: 01:26:27.160000000
NUMBER_OF_FRAMES: 124492
NUMBER_OF_FRAMES-eng: 124492
NUMBER_OF_BYTES : 570486072
NUMBER_OF_BYTES-eng: 570486072
_STATISTICS_WRITING_APP: mkvmerge v10.0.0 ('To Drown In You') 64bit
_STATISTICS_WRITING_APP-eng: mkvmerge v10.0.0 ('To Drown In You') 64bit
_STATISTICS_WRITING_DATE_UTC: 2017-04-16 20:53:34
_STATISTICS_WRITING_DATE_UTC-eng: 2017-04-16 20:53:34
_STATISTICS_TAGS: BPS DURATION NUMBER_OF_FRAMES NUMBER_OF_BYTES
_STATISTICS_TAGS-eng: BPS DURATION NUMBER_OF_FRAMES NUMBER_OF_BYTES
Stream #0:1: Audio: aac (LC), 48000 Hz, stereo, fltp (default)
BPS	: 96282
BPS-eng	: 96282
DURATION	: 01:26:26.964000000
DURATION-eng	: 01:26:26.964000000
NUMBER_OF_FRAMES: 243139
NUMBER_OF_FRAMES-eng: 243139
NUMBER_OF_BYTES : 62426997
NUMBER_OF_BYTES-eng: 62426997
_STATISTICS_WRITING_APP: mkvmerge v10.0.0 ('To Drown In You') 64bit
_STATISTICS_WRITING_APP-eng: mkvmerge v10.0.0 ('To Drown In You') 64bit
_STATISTICS_WRITING_DATE_UTC: 2017-04-16 20:53:34
_STATISTICS_WRITING_DATE_UTC-eng: 2017-04-16 20:53:34
_STATISTICS_TAGS: BPS DURATION NUMBER_OF_FRAMES NUMBER_OF_BYTES
_STATISTICS_TAGS-eng: BPS DURATION NUMBER_OF_FRAMES NUMBER_OF_BYTES
screenshots
Images are auto generated please report any inapropriate images
 

related search cloud

 gungrave  hevc  baby