Torrent Search | Torrent Meta Search | Widgets

Breaking Bad Stagione 1 2 3 4 ITA 720p

24.03 Gb
found 2 years ago
▲ seeders: 28 ▼ leechers:43
your vote:
real:
fake:
Direct Download
THANK YOU
download torrent
  Direct Downloadsponsored

Breaking Bad Stagione 1 2 3 4 ITA 720p torrent

Information about the torrent Breaking Bad Stagione 1 2 3 4 ITA 720p. Seeders, leechers and torrent status is updated several times per day.

If you want to download the tv torrent Breaking Bad Stagione 1 2 3 4 ITA 720p you will need a torrent client.

Torrent Metasearch.

tracker
seeders
leechers
↓ torrent client compatible list

↑ hide torrent client compatible list

Help torrentproject.se to stay alive .
Add links of torrentproject.se in your favorite forum, blog, youtube, facebook, twitter etc.
reviews
140
torrent contents

Breaking.Bad.Stagione.1.2.3.4.ITA.720p torrent

Breaking.Bad.Stagione.1.2.3.4.ITA.720p
 Breaking Bad - stagione 1
Breaking.Bad.S01E01.HDTVMux.ITA.avi357.94 Mb torrent search
Breaking.Bad.S01E02.HDTVMux.ITA.avi359.08 Mb torrent search
Breaking.Bad.S01E03.HDTVMux.ITA.avi357.71 Mb torrent search
Breaking.Bad.S01E04.HDTVMux.ITA.avi357.78 Mb torrent search
Breaking.Bad.S01E05.HDTVMux.ITA.avi357.6 Mb torrent search
Breaking.Bad.S01E06.HDTVMux.ITA.avi357.65 Mb torrent search
Breaking.Bad.S01E07.HDTVMux.ITA.avi357.78 Mb torrent search

Breaking.Bad.Stagione.1.2.3.4.ITA.720p
 Breaking Bad - stagione 2
Breaking.Bad.2x01.tutto.cambia.ITA.avi344.71 Mb torrent search
Breaking.Bad.2x02.grigliato.ITA.avi343.71 Mb torrent search
Breaking.Bad.2x03.punto.da.un.ape.morta.ITA.avi344.51 Mb torrent search
Breaking.Bad.2x04.a.terra.ITA.avi344.62 Mb torrent search
Breaking.Bad.2x05.una.pistola.per.Jesse.ITA.avi344.26 Mb torrent search
Breaking.Bad.2x06.una.lezione.indimenticabile.ITA.avi344.46 Mb torrent search
Breaking.Bad.2x07.nero.e.azzurro.ITA.avi344.52 Mb torrent search
Breaking.Bad.2x08.conviene.chiamare.Saul.ITA.avi344.37 Mb torrent search
Breaking.Bad.2x09.4.giorni.fuori.ITA.avi344.68 Mb torrent search
Breaking.Bad.2x10.game.over.ITA.avi344.18 Mb torrent search
Breaking.Bad.2x11.ITA.avi344.01 Mb torrent search
Breaking.Bad.2x12.ITA.avi344.72 Mb torrent search
Breaking.Bad.2x13.ITA.avi345.06 Mb torrent search

Breaking.Bad.Stagione.1.2.3.4.ITA.720p
 Breaking Bad - stagione 3
Breaking.Bad.3x01.Ora.Basta.ITA.avi345.75 Mb torrent search
Breaking.Bad.3x02.Cavallo.Senza.Nome.ITA.avi342.87 Mb torrent search
Breaking.Bad.3x03.Tradimento.ITA.avi342.59 Mb torrent search
Breaking.Bad.3x04.Luce.Verde.ITA.avi345.88 Mb torrent search
0

Sample info:
Duration: 00:50:13.95, start: 0.000000, bitrate: 384 kb/s
Stream #0.0: Audio: ac3, 48000 Hz, 5.1, s16, 384 kb/s (default)
Stream #0.1(eng): Video: h264 (High), yuv420p, 1280x720, PAR 1:1 DAR 16:9, 23.98 fps, 23.98 tbr, 1k tbn, 47.95 tbc
screenshots
Breaking Bad Stagione 1 torrent screenshot 90B2921AC5433E1482C50219E4B4D6FE0B44793D Breaking Bad Stagione 1  torrent screenshot 90b2921ac5433e1482c50219e4b4d6fe0b44793d torrent Breaking Bad Stagione 1
Breaking.Bad.Stagione.1.2.3.4.ITA.720p images are auto generated please report any inapropriate images
 

related search cloud

 breaking  hdtvmux  stagione  over  game  giorni  basta  fuori  senza  luce