Torrent Search | Torrent Meta Search | Widgets

HorribleSubs Dragon Ball Super 95 720p mkv

318.71 Mb
found 10 days ago
▲ seeders: 373 ▼ leechers:8
your vote:
real:
fake:
download torrent

HorribleSubs Dragon Ball Super 95 720p mkv torrent

Information about the torrent HorribleSubs Dragon Ball Super 95 720p mkv. Seeders, leechers and torrent status is updated several times per day.

If you want to download the hdrip torrent HorribleSubs Dragon Ball Super 95 720p mkv you will need a torrent client.

Torrent Metasearch.

tracker
seeders
leechers
↓ torrent client compatible list

↑ hide torrent client compatible list

torrent contents

[HorribleSubs] Dragon Ball Super - 95 [720p].mkv torrent

[HorribleSubs] Dragon Ball Super - 95 [720p].mkv318.71 Mb torrent search

Sample info:
Duration: 00:23:23.94, start: 0.000000, bitrate: 1904 kb/s
Stream #0:0: Video: h264 (High), yuv420p, 1280x720 [SAR 1:1 DAR 16:9], 23.81 fps, 23.81 tbr, 1k tbn, 47.95 tbc (default)
BPS	: 1774456
BPS-eng	: 1774456
DURATION	: 00:23:22.152000000
DURATION-eng	: 00:23:22.152000000
NUMBER_OF_FRAMES: 33619
NUMBER_OF_FRAMES-eng: 33619
NUMBER_OF_BYTES : 311007216
NUMBER_OF_BYTES-eng: 311007216
_STATISTICS_WRITING_APP: no_variable_data
_STATISTICS_WRITING_APP-eng: no_variable_data
_STATISTICS_WRITING_DATE_UTC: 1970-01-01 00:00:00
_STATISTICS_WRITING_DATE_UTC-eng: 1970-01-01 00:00:00
_STATISTICS_TAGS: BPS DURATION NUMBER_OF_FRAMES NUMBER_OF_BYTES
_STATISTICS_TAGS-eng: BPS DURATION NUMBER_OF_FRAMES NUMBER_OF_BYTES
Stream #0:1(jpn): Audio: aac (LC), 44100 Hz, stereo, fltp (default)
BPS	: 127999
BPS-eng	: 127999
DURATION	: 00:23:22.323000000
DURATION-eng	: 00:23:22.323000000
NUMBER_OF_FRAMES: 60393
NUMBER_OF_FRAMES-eng: 60393
NUMBER_OF_BYTES : 22437163
NUMBER_OF_BYTES-eng: 22437163
_STATISTICS_WRITING_APP: no_variable_data
_STATISTICS_WRITING_APP-eng: no_variable_data
_STATISTICS_WRITING_DATE_UTC: 1970-01-01 00:00:00
_STATISTICS_WRITING_DATE_UTC-eng: 1970-01-01 00:00:00
_STATISTICS_TAGS: BPS DURATION NUMBER_OF_FRAMES NUMBER_OF_BYTES
_STATISTICS_TAGS-eng: BPS DURATION NUMBER_OF_FRAMES NUMBER_OF_BYTES
Stream #0:2(eng): Subtitle: ass (default)
BPS	: 121
BPS-eng	: 121
DURATION	: 00:22:55.460000000
DURATION-eng	: 00:22:55.460000000
NUMBER_OF_FRAMES: 313
NUMBER_OF_FRAMES-eng: 313
NUMBER_OF_BYTES : 20860
NUMBER_OF_BYTES-eng: 20860
_STATISTICS_WRITING_APP: no_variable_data
_STATISTICS_WRITING_APP-eng: no_variable_data
_STATISTICS_WRITING_DATE_UTC: 1970-01-01 00:00:00
_STATISTICS_WRITING_DATE_UTC-eng: 1970-01-01 00:00:00
_STATISTICS_TAGS: BPS DURATION NUMBER_OF_FRAMES NUMBER_OF_BYTES
_STATISTICS_TAGS-eng: BPS DURATION NUMBER_OF_FRAMES NUMBER_OF_BYTES
Stream #0:3: Attachment: ttf
filename	: OpenSans-Semibold.ttf
mimetype	: application/x-truetype-font
screenshots
Images are auto generated please report any inapropriate images
 

related search cloud

 super  ball  dragon  horriblesubs