Torrent Search | Torrent Meta Search | Widgets

Amateur Lesbian Experience new

       
312.24 Mb
found 3 years ago
▲ seeders: 13 ▼ leechers:2
your vote:
real:
fake:
Direct Download
THANK YOU
download torrent
  Direct Downloadsponsored

Amateur Lesbian Experience new torrent

Information about the torrent Amateur Lesbian Experience new. Seeders, leechers and torrent status is updated several times per day.

If you want to download the video torrent Amateur Lesbian Experience new you will need a torrent client.

Torrent Metasearch.

Torrent verified by kat.ph.

tracker
seeders
leechers
↓ torrent client compatible list

↑ hide torrent client compatible list

Help torrentproject.se to stay alive .
Add links of torrentproject.se in your favorite forum, blog, youtube, facebook, twitter etc.
reviews
140
torrent contents

Amateur Lesbian Experience_(new).avi torrent

Amateur Lesbian Experience_(new).avi312.24 Mb torrent search

Sample info:
Duration: 00:28:23.23, start: 0.000000, bitrate: 1537 kb/s
Stream #0.0: Video: mpeg4 (Simple Profile), yuv420p, 448x332 [PAR 1:1 DAR 112:83], 29.97 fps, 29.97 tbr, 29.97 tbn, 2997 tbc
Stream #0.1: Audio: mp2, 48000 Hz, stereo, s16, 128 kb/s
screenshots
Amateur Lesbian Experience new torrent screenshot 90FB83EAF1D9C2D1A79FF9FF134EDC9F1E8811A0 Amateur Lesbian Experience new torrent screenshot 90fb83eaf1d9c2d1a79ff9ff134edc9f1e8811a0 torrent Amateur Lesbian Experience new
Amateur Lesbian Experience_(new).avi images are auto generated please report any inapropriate images
 

related search cloud

 experience  lesbian  amateur