Torrent Search | Torrent Meta Search | Widgets

Tokyo Hot n0827

983.92 Mb
found 2 years ago
▲ seeders: 1 ▼ leechers:1
your vote:
real:
fake:
Direct Download
THANK YOU
download torrent
  Direct Downloadsponsored

Tokyo Hot n0827 torrent

Information about the torrent Tokyo Hot n0827. Seeders, leechers and torrent status is updated several times per day.

If you want to download the video torrent Tokyo Hot n0827 you will need a torrent client.

Torrent Metasearch.

tracker
seeders
leechers
↓ torrent client compatible list

↑ hide torrent client compatible list

Help torrentproject.se to stay alive .
Add links of torrentproject.se in your favorite forum, blog, youtube, facebook, twitter etc.
reviews
140
torrent contents

Tokyo-Hot n0827-AVI torrent

Tokyo-Hot n0827-AVI
001.jpg594.63 Kb torrent search
002.jpg1.2 Mb torrent search
hotavxxx.com_n0827.avi982.14 Mb torrent search

Sample info:
Duration: 01:43:13.92, start: 0.000000, bitrate: 1330 kb/s
Stream #0.0(eng): Video: h264 (High), yuv420p, 720x404 [PAR 1:1 DAR 180:101], 1199 kb/s, 29.97 fps, 29.97 tbr, 30k tbn, 59.94 tbc
creation_time	: 2013-02-25 04:22:34
Stream #0.1(eng): Audio: aac, 48000 Hz, stereo, s16, 127 kb/s
creation_time	: 2013-02-25 04:22:34
screenshots
Tokyo Hot n0827 torrent screenshot 9330EE0A76F95BE360D63E64107E447A88FD0930 Tokyo Hot n0827 torrent screenshot 9330ee0a76f95be360d63e64107e447a88fd0930 torrent Tokyo Hot n0827
Tokyo-Hot n0827-AVI images are auto generated please report any inapropriate images
 

related search cloud

 hotavxxx  tokyo