Torrent Search | Torrent Meta Search | Widgets

IESP 574

1.4 Gb
found 1 year ago
▲ seeders: 0 ▼ leechers:1
your vote:
real:
fake:
Direct Download
THANK YOU
download torrent
  Direct Downloadsponsored

IESP 574 torrent

Information about the torrent IESP 574. Seeders, leechers and torrent status is updated several times per day.

If you want to download the video torrent IESP 574 you will need a torrent client.

Torrent Metasearch.

tracker
seeders
leechers
↓ torrent client compatible list

↑ hide torrent client compatible list

Help torrentproject.se to stay alive .
Add links of torrentproject.se in your favorite forum, blog, youtube, facebook, twitter etc.
reviews
140
torrent contents

IESP-574 torrent

IESP-574
5120911 @ sex8.cc.txt161 bytes torrent search
99BT工厂最新地址.mht127.48 Kb torrent search
IESP-574.mkv1.4 Gb torrent search
Sky.jpg16.34 Kb torrent search
今日新片发布.mht90.56 Kb torrent search
全国各地援交妹.mht490 bytes torrent search
最新の步兵骑兵西洋兵.url2.85 Kb torrent search
爱唯侦察_最新地址.chm11.29 Kb torrent search
真钱赌博性感荷官与您相约.mht495 bytes torrent search

Sample info:
Duration: 02:00:23.32, start: 0.000000, bitrate: 1659 kb/s
Stream #0:0(eng): Video: h264 (Constrained Baseline), yuv420p, 720x520 [SAR 13:12 DAR 3:2], 29.97 fps, 29.97 tbr, 1k tbn, 59.94 tbc (default)
Stream #0:1(eng): Audio: aac, 48000 Hz, stereo, s16 (default)
Stream #0:2: Subtitle: ssa (default)
screenshots
IESP 574 torrent screenshot 953E3C4678A48822FC2CB71AE3BB201D38D3581F IESP 574 torrent screenshot 953e3c4678a48822fc2cb71ae3bb201d38d3581f torrent IESP 574
IESP-574 images are auto generated please report any inapropriate images
you may be interested in these torrents seeders leechers size found

IESP 574 母親和女兒的身體交換了! 1 1 1.4 Gb 1 year ago

1iesp00574pl.jpg IESP-574.mkv tyc0803@伊莉論壇.txt


IESP 574 1 1 1.4 Gb 8 months ago

99BT工厂最新地址.mht IESP-574.mkv buxxa@ sex8.cc.txt 今日新片合集.mht



IESP 574 0 1 1.4 Gb 1 year ago

Blogjav.url IESP-574.mkv Javfree -.url torrentporno.info • Index page.url


happygjs88@ sexinsex net@IESP 574 母親和女兒的身體交換了! 0 1 1.4 Gb 8 months ago

BT原创区招收标准原创专职发帖手,待遇优厚! -SIS


IESP 574+H 264x2pass 0 1 1.27 Gb 2 years ago

1062364_by_18p2p.com.txt 1062364_by_18p2p.com.url 1145837_by_P.R.url 1145837_by_piring.txt


 

related search cloud

 iesp