Torrent Search | Torrent Meta Search | Widgets

En el Vientre Materno documental DVDRip spanish

       
687.93 Mb
found 3 years ago
▲ seeders: 17 ▼ leechers:1
your vote:
real:
fake:
Direct Download
THANK YOU
download torrent
  Direct Downloadsponsored

En el Vientre Materno documental DVDRip spanish torrent

Information about the torrent En el Vientre Materno documental DVDRip spanish. Seeders, leechers and torrent status is updated several times per day.

If you want to download the dvdrip torrent En el Vientre Materno documental DVDRip spanish you will need a torrent client.

Torrent Metasearch.

Torrent verified by kat.ph.

tracker
seeders
leechers
↓ torrent client compatible list

↑ hide torrent client compatible list

Help torrentproject.se to stay alive .
Add links of torrentproject.se in your favorite forum, blog, youtube, facebook, twitter etc.
reviews
140
torrent contents

En.el.Vientre.Materno[documental][dvdrip][spanish][www.lokotorrents.com] torrent

En.el.Vientre.Materno[documental][dvdrip][spanish][www.lokotorrents.com]
En.el.Vientre.Materno[documental][dvdrip][spanish][www.lokotorrents.com].avi687.93 Mb torrent search

Sample info:
Duration: 01:33:56.60, start: 0.000000, bitrate: 1023 kb/s
Stream #0.0: Video: mpeg4, yuv420p, 688x516 [PAR 1:1 DAR 4:3], 25.00 tb(r)
Stream #0.1: Audio: mp3, 48000 Hz, stereo, 160 kb/s
screenshots
En el Vientre Materno torrent screenshot 95BEE79AC09131D89940620F73233ECD9FA8FBFA En el Vientre Materno  torrent screenshot 95bee79ac09131d89940620f73233ecd9fa8fbfa torrent En el Vientre Materno
En.el.Vientre.Materno[documental][dvdrip][spanish][www.lokotorrents.com] images are auto generated please report any inapropriate images
 

related search cloud

 spanish  lokotorrents  dvdrip  documental  materno  vientre