Torrent Search | Torrent Meta Search | Widgets

Les Mythos (2011) FRENCH DVDRip XviD

       
699.32 Mb
found 3 years ago
▲ seeders: 3 ▼ leechers:0
your vote:
real:
fake:
THANK YOU
download torrent

Les Mythos (2011) FRENCH DVDRip XviD torrent

Information about the torrent Les Mythos (2011) FRENCH DVDRip XviD. A torrent file stores metadata that can be used from a BitTorrent client.

If you want to download the dvdrip torrent Les Mythos (2011) FRENCH DVDRip XviD you will need a torrent client.

Torrent Metasearch.

Torrent verified by kat.ph.

tracker
seeders
leechers
↓ torrent client compatible list

↑ hide torrent client compatible list

reviews
140
torrent contents

[Cpasbien.com] Les.Mythos.2011.FRENCH.DVDRiP.XviD torrent

[Cpasbien.com] Les.Mythos.2011.FRENCH.DVDRiP.XviD
[Cpasbien.com] Les.Mythos.2011.FRENCH.DVDRiP.XviD-ANONYM.avi699.31 Mb torrent search
Les.Mythos.2011.FRENCH.DVDRiP.XviD-ANONYM.nfo5.11 Kb torrent search

Sample info:
Duration: 01:25:40.16, start: 0.000000, bitrate: 1141 kb/s
Stream #0.0: Video: mpeg4, yuv420p, 624x336 [PAR 1:1 DAR 13:7], 25 tbr, 25 tbn, 25 tbc
Stream #0.1: Audio: mp3, 44100 Hz, 2 channels, s16, 128 kb/s
screenshots
Les Mythos 2011 FRENCH torrent screenshot 9609875F95D38CACD16B21B171ABD28A9B45F416 Les Mythos 2011 FRENCH  torrent screenshot 9609875f95d38cacd16b21b171abd28a9b45f416 torrent Les Mythos 2011 FRENCH
Images are auto generated please report any inapropriate images
you may be interested in these torrents seeders leechers size found
Les Mythos (2011) FRENCH DVDRip XviD     80 3 699.31 Mb 2 years ago

Les.Mythos.2011.FRENCH.DVDRiP.Xvid.avi


Les Mythos (2011) FRENCH DVDRip XviD ANONYM     4 0 699.31 Mb 3 years ago

Bienvenue sur p2povore.url Les.Mythos.2011.FRENCH.DVDRiP.XviD-ANONYM.avi


Les Mythos (2011) FRENCH 1080p BluRay x264 SEIGHT mkv 0 1 6.55 Gb 3 years ago

Les.Mythos.2011.FRENCH.1080p.BluRay.x264-SEIGHT.mkv


 

related search cloud

 dvdrip  french  mythos  anonym  xvid  cpasbien