Torrent Search | Torrent Meta Search | Widgets

HorribleSubs Boku no Hero Academia 25 720p mkv

323.84 Mb
found 10 days ago
▲ seeders: 795 ▼ leechers:10
your vote:
real:
fake:
download torrent

HorribleSubs Boku no Hero Academia 25 720p mkv torrent

Information about the torrent HorribleSubs Boku no Hero Academia 25 720p mkv. Seeders, leechers and torrent status is updated several times per day.

If you want to download the hdrip torrent HorribleSubs Boku no Hero Academia 25 720p mkv you will need a torrent client.

Torrent Metasearch.

tracker
seeders
leechers
↓ torrent client compatible list

↑ hide torrent client compatible list

torrent contents

[HorribleSubs] Boku no Hero Academia - 25 [720p].mkv torrent

[HorribleSubs] Boku no Hero Academia - 25 [720p].mkv323.84 Mb torrent search

Sample info:
Duration: 00:23:54.71, start: 0.000000, bitrate: 1893 kb/s
Stream #0:0: Video: h264 (High), yuv420p, 1280x720 [SAR 1:1 DAR 16:9], 23.81 fps, 23.81 tbr, 1k tbn, 47.95 tbc (default)
BPS	: 1767473
BPS-eng	: 1767473
DURATION	: 00:23:49.972000000
DURATION-eng	: 00:23:49.972000000
NUMBER_OF_FRAMES: 34286
NUMBER_OF_FRAMES-eng: 34286
NUMBER_OF_BYTES : 315929764
NUMBER_OF_BYTES-eng: 315929764
_STATISTICS_WRITING_APP: no_variable_data
_STATISTICS_WRITING_APP-eng: no_variable_data
_STATISTICS_WRITING_DATE_UTC: 1970-01-01 00:00:00
_STATISTICS_WRITING_DATE_UTC-eng: 1970-01-01 00:00:00
_STATISTICS_TAGS: BPS DURATION NUMBER_OF_FRAMES NUMBER_OF_BYTES
_STATISTICS_TAGS-eng: BPS DURATION NUMBER_OF_FRAMES NUMBER_OF_BYTES
Stream #0:1(jpn): Audio: aac (LC), 44100 Hz, stereo, fltp (default)
BPS	: 128000
BPS-eng	: 128000
DURATION	: 00:23:50.047000000
DURATION-eng	: 00:23:50.047000000
NUMBER_OF_FRAMES: 61587
NUMBER_OF_FRAMES-eng: 61587
NUMBER_OF_BYTES : 22880757
NUMBER_OF_BYTES-eng: 22880757
_STATISTICS_WRITING_APP: no_variable_data
_STATISTICS_WRITING_APP-eng: no_variable_data
_STATISTICS_WRITING_DATE_UTC: 1970-01-01 00:00:00
_STATISTICS_WRITING_DATE_UTC-eng: 1970-01-01 00:00:00
_STATISTICS_TAGS: BPS DURATION NUMBER_OF_FRAMES NUMBER_OF_BYTES
_STATISTICS_TAGS-eng: BPS DURATION NUMBER_OF_FRAMES NUMBER_OF_BYTES
Stream #0:2(eng): Subtitle: ass (default)
BPS	: 118
BPS-eng	: 118
DURATION	: 00:23:53.110000000
DURATION-eng	: 00:23:53.110000000
NUMBER_OF_FRAMES: 329
NUMBER_OF_FRAMES-eng: 329
NUMBER_OF_BYTES : 21209
NUMBER_OF_BYTES-eng: 21209
_STATISTICS_WRITING_APP: no_variable_data
_STATISTICS_WRITING_APP-eng: no_variable_data
_STATISTICS_WRITING_DATE_UTC: 1970-01-01 00:00:00
_STATISTICS_WRITING_DATE_UTC-eng: 1970-01-01 00:00:00
_STATISTICS_TAGS: BPS DURATION NUMBER_OF_FRAMES NUMBER_OF_BYTES
_STATISTICS_TAGS-eng: BPS DURATION NUMBER_OF_FRAMES NUMBER_OF_BYTES
Stream #0:3: Attachment: ttf
filename	: OpenSans-Semibold.ttf
mimetype	: application/x-truetype-font
screenshots
Images are auto generated please report any inapropriate images
 

related search cloud

 academia  hero  boku  horriblesubs