Torrent Search | Torrent Meta Search | Widgets

Branded (2012)

       
799.99 Mb
found 5 years ago
▲ seeders: 12 ▼ leechers:1
your vote:
real:
fake:

Branded

2012 · 106 min · 4.7/10 (8k votes) in imdb
Science Fiction
The Mad Cow
Dystopian future where corporate brands have created a disillusioned population, one man's effort to unlock the truth behind the conspiracy will lead to an epic battle with hidden forces that control the world.
download torrent

Branded (2012) torrent

Information about the torrent Branded (2012). Seeders, leechers and torrent status is updated everyday.

If you want to download the hdrip torrent Branded (2012) you will need a torrent client.

Torrent Metasearch.

Torrent verified by thepiratebay.se.

tracker
seeders
leechers
↓ torrent client compatible list

↑ hide torrent client compatible list

torrent contents

Branded (2012) torrent

Branded (2012)
Branded.2012.720p.BRrip.x264.YIFY.mp4799.86 Mb torrent search
WWW.YIFY-TORRENTS.COM.jpg127.61 Kb torrent search

Sample info:
Duration: 01:46:24.16, start: 0.000000, bitrate: 1050 kb/s
Stream #0.0	: Video: h264 (High), yuv420p, 1280x544 [PAR 1:1 DAR 40:17], 951 kb/s, 24 fps, 24 tbr, 96 tbn, 48 tbc
creation_time	: 2012-10-20 17:11:45
Stream #0.1(eng): Audio: aac, 48000 Hz, stereo, s16, 95 kb/s
creation_time	: 2012-10-20 17:12:23
screenshots
Images are auto generated please report any inapropriate images
 

related search cloud

 yify  branded  torrents  brrip