Torrent Search | Torrent Meta Search | Widgets

Fargo S03E01 WEBRip x264 FUM ettv

339.35 Mb
found 9 days ago
▲ seeders: 1649 ▼ leechers:108
your vote:
real:
fake:
download torrent

Fargo S03E01 WEBRip x264 FUM ettv torrent

Information about the torrent Fargo S03E01 WEBRip x264 FUM ettv. Seeders, leechers and torrent status is updated several times per day.

If you want to download the tv torrent Fargo S03E01 WEBRip x264 FUM ettv you will need a torrent client.

Torrent Metasearch.

tracker
seeders
leechers
↓ torrent client compatible list

↑ hide torrent client compatible list

torrent contents

Fargo.S03E01.WEBRip.x264-FUM[ettv] torrent

Fargo.S03E01.WEBRip.x264-FUM[ettv]
Fargo.S03E01.WEBRip.x264-FUM[ettv].mp4339.35 Mb torrent search
Torrent-Downloaded-from-ExtraTorrent.cc.txt169 bytes torrent search

Sample info:
Duration: 01:06:28.18, start: 0.000000, bitrate: 713 kb/s
Stream #0:0	: Video: h264 (High) (avc1 / 0x31637661), yuv420p(tv, bt709/unknown/unknown), 848x424 [SAR 1:1 DAR 2:1], 588 kb/s, 23.98 fps, 23.98 tbr, 24k tbn, 47.95 tbc (default)
creation_time	: 2017-04-20 17:34:41
Stream #0:1	: Audio: aac (LC) (mp4a / 0x6134706D), 48000 Hz, stereo, fltp, 121 kb/s (default)
creation_time	: 2017-04-20 17:01:36
screenshots
Images are auto generated please report any inapropriate images
 

related search cloud

 fargo  ettv  webrip  extratorrent  torrent  downloaded