Torrent Search | Torrent Meta Search | Widgets

CBM Kill Me Baby 1 13 Complete Dual Audio DVDRip 480p 8bit

2.49 Gb
found 1 year ago
▲ seeders: 3 ▼ leechers:1
your vote:
real:
fake:
Direct Download
THANK YOU
download torrent
  Direct Downloadsponsored

CBM Kill Me Baby 1 13 Complete Dual Audio DVDRip 480p 8bit torrent

Information about the torrent CBM Kill Me Baby 1 13 Complete Dual Audio DVDRip 480p 8bit. Seeders, leechers and torrent status is updated several times per day.

If you want to download the dvdrip torrent CBM Kill Me Baby 1 13 Complete Dual Audio DVDRip 480p 8bit you will need a torrent client.

Torrent Metasearch.

tracker
seeders
leechers
↓ torrent client compatible list

↑ hide torrent client compatible list

Help torrentproject.se to stay alive .
Add links of torrentproject.se in your favorite forum, blog, youtube, facebook, twitter etc.
reviews
140
torrent contents

[CBM] Kill Me Baby 1-13 Complete (Dual Audio) [DVDRip-480p-8bit] torrent

[CBM] Kill Me Baby 1-13 Complete (Dual Audio) [DVDRip-480p-8bit]
[CBM]_Kill_Me_Baby_-_11_-_Bath_Kite_Rice_Cake_New_Year`s_First_Dream_[F5E9AFB4].mkv217.2 Mb torrent search
[CBM]_Kill_Me_Baby_-_05_-_Buggy_Festival_Sea_Dolls_[133AA8B0].mkv216.27 Mb torrent search
[CBM]_Kill_Me_Baby_-_10_-_Santa_Icicle_Snow_Mantra_[AF5503CB].mkv208.11 Mb torrent search
[CBM]_Kill_Me_Baby_-_09_-_Fishing_Hammer`s_Spawn_Branch_Forgotten_[28C316CC].mkv207.66 Mb torrent search
[CBM]_Kill_Me_Baby_-_12_-_Drowsy_Chocolate_Injury_Compress_[8C6AD6EB].mkv199.29 Mb torrent search
[CBM]_Kill_Me_Baby_-_01_-_Sneaking_Dog,_Blossoming_Cherry_[E0BFCA06].mkv193.3 Mb torrent search
[CBM]_Kill_Me_Baby_-_02_-_Nunchaku_Skills_Bear_Balloon_[CFD3B171].mkv192.61 Mb torrent search
[CBM]_Kill_Me_Baby_-_06_-_Navel_Mechanism_Paper_Doll_Ice_[E8615645].mkv192.12 Mb torrent search
[CBM]_Kill_Me_Baby_-_13_-_Make_the_Kill_Me_and_Make_Me_Your_Baby_[3AD19EC8].mkv190.29 Mb torrent search
[CBM]_Kill_Me_Baby_-_07_-_Culture_Beanbag_Jousting_Duel_[E32EE998].mkv186.55 Mb torrent search
[CBM]_Kill_Me_Baby_-_03_-_Cursed_Psychic_Rain_Wrestling_[451B8FF6].mkv184.22 Mb torrent search
[CBM]_Kill_Me_Baby_-_04_-_Ice_Cream_Scream_Watermelon_[38D2E324].mkv181.95 Mb torrent search
[CBM]_Kill_Me_Baby_-_08_-_Sticking,_Strumming,_Stabbing_[44E52416].mkv179 Mb torrent search
[CBM]_Kill_Me_Baby_[480p].sfv2.53 Kb torrent search

Sample info:
Duration: 00:24:12.45, start: 0.000000, bitrate: N/A
Stream #0.0(jpn): Video: h264 (High), yuv420p, 720x480 [PAR 1:1 DAR 3:2], PAR 186:157 DAR 279:157, 23.98 fps, 23.98 tbr, 1k tbn, 47.95 tbc
title	: H.264/AVC Video
Stream #0.1(eng): Audio: aac, 48000 Hz, stereo, s16 (default)
title	: English: Stereo
Stream #0.2(jpn): Audio: aac, 48000 Hz, stereo, s16
title	: Japanese: Stereo
Stream #0.3(eng): Subtitle: ass
title	: English Signs/Songs
Stream #0.4(eng): Subtitle: ass
title	: English Subtitles
mimetype	: application/x-truetype-font
free.ttf
mimetype	: application/x-truetype-font
mimetype	: application/x-truetype-font
screenshots
CBM Kill Me Baby torrent screenshot 9CD726949ED11AF573785B79F4BE11F15339D2F0 CBM Kill Me Baby  torrent screenshot 9cd726949ed11af573785b79f4be11f15339d2f0 torrent CBM Kill Me Baby
[CBM] Kill Me Baby 1-13 Complete (Dual Audio) [DVDRip-480p-8bit] images are auto generated please report any inapropriate images
 

related search cloud

 baby  kill  make  mechanism  paper  your  navel  doll  bear  bfca