Torrent Search | Torrent Meta Search | Widgets

Lexi Belle Mia Malkova Truth Or Dare (2013) HD 1080p

       
941.5 Mb
found 3 years ago
▲ seeders: 1 ▼ leechers:0
your vote:
real:
fake:
download torrent

Lexi Belle Mia Malkova Truth Or Dare (2013) HD 1080p torrent

Information about the torrent Lexi Belle Mia Malkova Truth Or Dare (2013) HD 1080p. Seeders, leechers and torrent status is updated several times per day.

If you want to download the adult torrent Lexi Belle Mia Malkova Truth Or Dare (2013) HD 1080p you will need a torrent client.

Torrent Metasearch.

.

No trackers with seeders or leechers have been found, this doesn't mean that the torrent Lexi Belle Mia Malkova Truth Or Dare (2013) HD 1080p is dead
comments/reviews
140
torrent contents

Lexi Belle, Mia Malkova (Truth Or Dare) (2013) HD 1080p torrent

Lexi Belle, Mia Malkova (Truth Or Dare) (2013) HD 1080p
x-art_mia_m_lexi_tyler_mrx_truth_or_dare_1080.mov941.5 Mb torrent search

Sample info:
Duration: 00:15:17.61, start: 0.000000, bitrate: 8606 kb/s
Stream #0.0(eng): Video: mpeg4 (Simple Profile), yuv420p, 1920x1080 [PAR 1:1 DAR 16:9], 8491 kb/s, 29.97 fps, 29.97 tbr, 2997 tbn, 2997 tbc
Stream #0.1(eng): Audio: aac, 48000 Hz, stereo, s16, 108 kb/s
screenshots
Images are auto generated please report any inapropriate images
 

related search cloud

 lexi  dare  truth  tyler  malkova  belle