Torrent Search | Torrent Meta Search | Widgets

Yellow Submarine (1968) 720p BRRip

       
728.43 Mb
found 5 years ago
▲ seeders: 46 ▼ leechers:2
your vote:
real:
fake:

Yellow Submarine

1968 · 90 min · 7.4/10 (19k votes) in imdb
Animation, Adventure, Comedy, Fantasy, Musical
The forces of good! The forces of evil!
Director: George Dunning
The Beatles agree to accompany Captain Fred in his Yellow Submarine and go to Pepperland to free it from the music hating Blue Meanies.
download torrent

Yellow Submarine (1968) 720p BRRip torrent

Information about the torrent Yellow Submarine (1968) 720p BRRip. Seeders, leechers and torrent status is updated several times per day.

If you want to download the hdrip torrent Yellow Submarine (1968) 720p BRRip you will need a torrent client.

Torrent Metasearch.

Torrent verified by kat.ph.

tracker
seeders
leechers
↓ torrent client compatible list

↑ hide torrent client compatible list

torrent contents

Yellow Submarine 1968 720p BRRip torrent

Yellow Submarine 1968 720p BRRip
Yellow Submarine 1968 720p BRRip - zeberzee.m4v716.64 Mb torrent search
Yellow Submarine 1968 720p BRRip - sample.m4v11.79 Mb torrent search
thepiratebay forum @ suprbay.org.txt69 bytes torrent search
Torrent Downloaded From Ahashare.com.txt36 bytes torrent search

Sample info:
Duration: 01:29:41.45, start: 0.000000, bitrate: 1117 kb/s
32
Stream #0.0	: Video: h264 (Main), yuv420p, 1200x720, 999 kb/s, 23.98 fps, 1k tbr, 90k tbn, 180k tbc
creation_time	: 2012-05-29 04:54:11
Stream #0.1(eng): Audio: aac, 48000 Hz, stereo, s16, 111 kb/s
creation_time	: 2012-05-29 04:54:11
Stream #0.2	: Subtitle: text / 0x74786574, 0 kb/s
creation_time	: 2012-05-29 04:54:11
screenshots
Images are auto generated please report any inapropriate images
 

related search cloud

 yellow  brrip  submarine  downloaded  ahashare  torrent  sample  zeberzee  thepiratebay  suprbay