Torrent Search | Torrent Meta Search | Widgets

BackroomCastingCouch Pepper Anne SD

438.57 Mb
found 1 year ago
▲ seeders: 1 ▼ leechers:1
your vote:
real:
fake:
THANK YOU
download torrent

BackroomCastingCouch Pepper Anne SD torrent

Information about the torrent BackroomCastingCouch Pepper Anne SD. Seeders, leechers and torrent status is updated several times per day.

If you want to download the adult torrent BackroomCastingCouch Pepper Anne SD you will need a torrent client.

Torrent Metasearch.

tracker
seeders
leechers
↓ torrent client compatible list

↑ hide torrent client compatible list

reviews
140
torrent contents

BackroomCastingCouch - Pepper Anne SD torrent

BackroomCastingCouch - Pepper Anne SD
BackroomCastingCouch.13.08.12.Pepper.Anne.XXX.wmv438.57 Mb torrent search
Torrent Downloaded from RARBG.com.nfo33 bytes torrent search

Sample info:
Duration: 00:31:25.70, start: 0.000000, bitrate: 1950 kb/s
Stream #0:0: Video: wmv3 (Main) (WMV3 / 0x33564D57), yuv420p, 768x432, 29.97 tbr, 1k tbn, 1k tbc
Stream #0:1: Audio: wmav2 (a[1][0][0] / 0x0161), 44100 Hz, stereo, s16, 128 kb/s
screenshots
BackroomCastingCouch Pepper Anne SD torrent screenshot 9E74EBC2DA0440CE6A7CCC8E31F399FC68B1DA28 BackroomCastingCouch Pepper Anne SD torrent screenshot 9e74ebc2da0440ce6a7ccc8e31f399fc68b1da28 torrent BackroomCastingCouch Pepper Anne SD
Images are auto generated please report any inapropriate images
you may be interested in these torrents seeders leechers size found
BackroomCastingCouch Pepper Anne XXX 2 0 426.51 Mb 1 year ago

BackroomCastingCouch - Pepper Anne (XXX) (Tripledeseo.com).wmv


BackroomCastingCouch Pepper Anne XxX 0 1 438.57 Mb 1 year ago

BackroomCastingCouch.Pepper.Anne.XxX.wmv


 

related search cloud

 backroomcastingcouch  anne  pepper  rarbg  torrent  downloaded