Torrent Search | Torrent Meta Search | Widgets

LS Dream Issue 6 Secret Place All Movies

870.08 Mb
found 3 years ago
▲ seeders: 11 ▼ leechers:4
your vote:
real:
fake:
Direct Download
THANK YOU
download torrent
  Direct Downloadsponsored

LS Dream Issue 6 Secret Place All Movies torrent

Information about the torrent LS Dream Issue 6 Secret Place All Movies. Seeders, leechers and torrent status is updated several times per day.

If you want to download the video torrent LS Dream Issue 6 Secret Place All Movies you will need a torrent client.

Torrent Metasearch.

tracker
seeders
leechers
↓ torrent client compatible list

↑ hide torrent client compatible list

Help torrentproject.se to stay alive .
Add links of torrentproject.se in your favorite forum, blog, youtube, facebook, twitter etc.
reviews
anonymous 17 Jun 2014, 01:06:30
how do you report this?!n
anonymous 12 May 2014, 11:05:58
good
140
torrent contents

LS Dream Issue 6 Secret Place - All Movies torrent

LS Dream Issue 6 Secret Place - All Movies
6.jpg119.24 Kb torrent search
cap.jpg1.01 Mb torrent search
lsd06-01-01.mpg73.52 Mb torrent search
lsd06-01-02.mpg79.58 Mb torrent search
lsd06-01-03.mpg92.82 Mb torrent search
lsd06-01-04.mpg67.45 Mb torrent search
lsd06-02-01.mpg99.8 Mb torrent search
lsd06-02-02.mpg102.72 Mb torrent search
lsd06-02-03.mpg60.68 Mb torrent search
lsd06-02-04.mpg51.3 Mb torrent search
lsd06-03-01.mpg89.21 Mb torrent search
lsd06-03-02.mpg75.59 Mb torrent search
lsd06-03-03.mpg76.28 Mb torrent search

Sample info:
Duration: 00:08:07.40, start: 0.000000, bitrate: 1767 kb/s
Stream #0:0: Video: mpeg4 (DX50 / 0x30355844), yuv420p, 704x576 [SAR 1:1 DAR 11:9], 25 fps, 25 tbr, 25 tbn, 30k tbc
Stream #0:1: Audio: mp3 (U[0][0][0] / 0x0055), 24000 Hz, stereo, s16, 56 kb/s
screenshots
LS Dream Issue 6 torrent screenshot A0BF533648971DE2D043D021F55E50419D8F05C9 LS Dream Issue 6  torrent screenshot a0bf533648971de2d043d021f55e50419d8f05c9 torrent LS Dream Issue 6
LS Dream Issue 6 Secret Place - All Movies images are auto generated please report any inapropriate images
you may be interested in these torrents seeders leechers size found
LS Dream Issue 6 Secret Place All Movies 0 21 1.71 Gb 10 months ago

6.jpg 6.jpg.bc!. cap.jpg cap.jpg.bc!. lsd06-01-0


 

related search cloud

 movies  place  secret  dream