Torrent Search | Torrent Meta Search | Widgets

The Guardians (2017) HDRip XviD AC3 EVO

       
1.37 Gb
found 11 days ago
▲ seeders: 1591 ▼ leechers:537
your vote:
real:
fake:
download torrent

The Guardians (2017) HDRip XviD AC3 EVO torrent

Information about the torrent The Guardians (2017) HDRip XviD AC3 EVO. Seeders, leechers and torrent status is updated everyday.

If you want to download the hdrip torrent The Guardians (2017) HDRip XviD AC3 EVO you will need a torrent client.

Torrent Metasearch.

Torrent verified by thepiratebay.se.

tracker
seeders
leechers
↓ torrent client compatible list

↑ hide torrent client compatible list

torrent contents

The.Guardians.2017.HDRip.XviD.AC3-EVO torrent

The.Guardians.2017.HDRip.XviD.AC3-EVO
 Subtitles
English.srt41.19 Kb torrent search

The.Guardians.2017.HDRip.XviD.AC3-EVO
The.Guardians.2017.HDRip.XviD.AC3-EVO.avi1.37 Gb torrent search
The.Guardians.2017.HDRip.XviD.AC3-EVO.nfo683 bytes torrent search
Torrent Downloaded From ExtraTorrent.cc.txt338 bytes torrent search
sample.avi7.56 Mb torrent search

Sample info:
Duration: 01:29:04.30, start: 0.000000, bitrate: 2197 kb/s
Stream #0:0: Video: mpeg4 (Advanced Simple Profile) (XVID / 0x44495658), yuv420p, 720x304 [SAR 1:1 DAR 45:19], 1803 kb/s, 23.98 fps, 23.98 tbr, 23.98 tbn, 23.98 tbc
Stream #0:1: Audio: ac3 ([0] [0][0] / 0x2000), 48000 Hz, 5.1(side), fltp, 384 kb/s
screenshots
Images are auto generated please report any inapropriate images
 

related search cloud

 guardians  xvid  hdrip  extratorrent  sample  downloaded  english  subtitles  torrent