Torrent Search | Torrent Meta Search | Widgets

Dracula (2013) S01E03 HDTV x264 LOL

256.99 Mb
found 10 months ago
▲ seeders: 52 ▼ leechers:3
your vote:
real:
fake:
Direct Download
THANK YOU
download torrent
  Direct Downloadsponsored

Dracula (2013) S01E03 HDTV x264 LOL torrent

Information about the torrent Dracula (2013) S01E03 HDTV x264 LOL. Seeders, leechers and torrent status is updated everyday.

If you want to download the tv torrent Dracula (2013) S01E03 HDTV x264 LOL you will need a torrent client.

Torrent Metasearch.

tracker
seeders
leechers
↓ torrent client compatible list

↑ hide torrent client compatible list

Help torrentproject.se to stay alive .
Add links of torrentproject.se in your favorite forum, blog, youtube, facebook, twitter etc.
reviews
140
torrent contents

Dracula.2013.S01E03.HDTV.x264-LOL.mp4 torrent

Dracula.2013.S01E03.HDTV.x264-LOL.mp4256.99 Mb torrent search

Sample info:
Duration: 00:42:59.56, start: 0.000000, bitrate: 835 kb/s
Stream #0:0	: Video: h264 (High) (avc1 / 0x31637661), yuv420p, 720x404, 707 kb/s, 25 fps, 25 tbr, 25 tbn, 50 tbc
creation_time	: 2013-11-09 03:43:39
handler_name	: L-SMASH Video Media Handler
Stream #0:1	: Audio: aac (mp4a / 0x6134706D), 48000 Hz, stereo, s16, 123 kb/s
creation_time	: 2013-11-09 03:43:48
handler_name	: GPAC ISO Audio Handler
screenshots
Dracula 2013 S01E03 HDTV torrent screenshot A2449C0E09568F5C4DB8F75A716F10A8109409FF Dracula 2013 S01E03 HDTV  torrent screenshot a2449c0e09568f5c4db8f75a716f10a8109409ff torrent Dracula 2013 S01E03 HDTV
Dracula.2013.S01E03.HDTV.x264-LOL.mp4 images are auto generated please report any inapropriate images
 

related search cloud

 hdtv  dracula