Torrent Search | Torrent Meta Search | Widgets

Tongue To Ass 3

891.65 Mb
found 1 year ago
▲ seeders: 2 ▼ leechers:2
your vote:
real:
fake:
Direct Download
THANK YOU
download torrent
  Direct Downloadsponsored

Tongue To Ass 3 torrent

Information about the torrent Tongue To Ass 3. Seeders, leechers and torrent status is updated everyday.

If you want to download the video torrent Tongue To Ass 3 you will need a torrent client.

Torrent Metasearch.

tracker
seeders
leechers
↓ torrent client compatible list

↑ hide torrent client compatible list

Help torrentproject.se to stay alive .
Add links of torrentproject.se in your favorite forum, blog, youtube, facebook, twitter etc.
reviews
140
torrent contents

Tongue To Ass 3 torrent

Tongue To Ass 3
Tongue To Ass 3a.mp4275.32 Mb torrent search
Tongue To Ass 3b.wmv169.85 Mb torrent search
Tongue To Ass 3d.mp4245.69 Mb torrent search
Tongue To Ass 3c.mp4200.8 Mb torrent search

Sample info:
Duration: 00:31:30.42, start: 0.000000, bitrate: 1221 kb/s
Stream #0:0	: Video: h264 (High) (avc1 / 0x31637661), yuv420p, 656x480, 1141 kb/s, 29.97 fps, 29.97 tbr, 22050 tbn, 59.94 tbc
creation_time	: 2012-12-22 02:14:15
Stream #0:1(eng): Audio: aac (mp4a / 0x6134706D), 22050 Hz, stereo, s16, 75 kb/s
creation_time	: 2012-12-22 02:14:15
screenshots
Tongue To Ass 3 torrent screenshot A464BFF9A5D43DCDAA8BE3956AA12E8DB08D1108 Tongue To Ass 3 torrent screenshot a464bff9a5d43dcdaa8be3956aa12e8db08d1108 torrent Tongue To Ass 3
Tongue To Ass 3 images are auto generated please report any inapropriate images
 

related search cloud

 tongue