Torrent Search | Torrent Meta Search | Widgets

Stunning 18 2013 07 05 Sunset Jenny D by Antonio Clemens 1080

246.56 Mb
found 1 year ago
▲ seeders: 1 ▼ leechers:0
your vote:
real:
fake:
THANK YOU
download torrent
  Direct Downloadsponsored

Stunning 18 2013 07 05 Sunset Jenny D by Antonio Clemens 1080 torrent

Information about the torrent Stunning 18 2013 07 05 Sunset Jenny D by Antonio Clemens 1080. Seeders, leechers and torrent status is updated everyday.

If you want to download the video torrent Stunning 18 2013 07 05 Sunset Jenny D by Antonio Clemens 1080 you will need a torrent client.

Torrent Metasearch.

No trackers with seeders or leechers have been found, this doesn't mean that the torrent Stunning 18 2013 07 05 Sunset Jenny D by Antonio Clemens 1080 is dead
reviews
140
torrent contents

Stunning-18_2013-07-05_Sunset_Jenny-D_by_Antonio-Clemens-1080.mp4 torrent

Stunning-18_2013-07-05_Sunset_Jenny-D_by_Antonio-Clemens-1080.mp4246.56 Mb torrent search

Sample info:
Duration: 00:11:00.07, start: 0.000000, bitrate: 3133 kb/s
Stream #0:0(eng): Video: h264 (High) (avc1 / 0x31637661), yuv420p, 1920x1080 [SAR 1:1 DAR 16:9], 2999 kb/s, 25 fps, 25 tbr, 25 tbn, 50 tbc
creation_time	: 2013-06-14 06:43:31
handler_name	: VideoHandler
Stream #0:1(eng): Audio: aac (mp4a / 0x6134706D), 44100 Hz, stereo, s16, 127 kb/s
creation_time	: 2013-06-14 06:43:31
handler_name	: SoundHandler
screenshots
Stunning 18 2013 07 torrent screenshot A76BD36AFAD7DA9DDE78FBA0CBADB4E65B615289 Stunning 18 2013 07  torrent screenshot a76bd36afad7da9dde78fba0cbadb4e65b615289 torrent Stunning 18 2013 07
Images are auto generated please report any inapropriate images
you may be interested in these torrents seeders leechers size found
S18 2013 07 02 Sammy A Smiley 1 1 227.3 Mb 3 months ago

Stunning-18_2013-07-02_Smiley_Sammy-A_by_Antonio-Clemens-1080.mp4 cover.jpg


 

related search cloud

 clemens  antonio  jenny  sunset  stunning